img image001 image001 image001 image001 image001 image001 image001 image001 image001 image001 image001 image001 image001 image001 image001

Planets Sun Sun Sun
Статистика раздачи
Автор: Nickolas3434 | Размер: 1.44 ГБ | Добавлен: 18 мар 2014
Раздают: 74    Качают: 16
Скачать торрент
Скачать торрент
Описание торрента

СообщениеДобавлено: 18 мар 2014 

XI Зимние Паралимпийские Игры 2014. Церемония закрытия. Спорт 1
Комментарий: Профессиональный
Язык комментариев: Русский (Сергей Брилев и Дмитрий Губерниев)
Продолжительность: 01:46:43
Описание: Торжественная Церемония закрытия XI зимних Паралимпийских игр 2014 в Сочи.
Трансляция полная, реклам во время трансляции не было!

Автор рипа: sanchez2011
Качество: SATRip
Формат: AVI
Видео кодек: XviD
Аудио кодек: MP3
Видео: MPEG-4 Visual (H263) 720x400 (16:9) 25.00fps 1800kbps
Аудио: MPEG Audio Layer 3 48000Hz stereo 128kbps



General
Complete name : E:Паралимпиада 2014XI Зимние Паралимпийские Игры 2014. Церемония закрытия. Спорт 1 SATRip.avi
Format : AVI
Format/Info : Audio Video Interleave
File size : 1.44 GiB
Duration : 1h 46mn
Overall bit rate : 1 932 Kbps
Writing application : VirtualDubMod 1.5.10.2 (build 2540/release)
Writing library : VirtualDubMod build 2540/release

Video
ID : 0
Format : MPEG-4 Visual
Format profile : Advanced Simple@L5
Format settings, BVOP : 2
Format settings, QPel : No
Format settings, GMC : No warppoints
Format settings, Matrix : Default (H.263)
Codec ID : XVID
Codec ID/Hint : XviD
Duration : 1h 46mn
Bit rate : 1 795 Kbps
Width : 720 pixels
Height : 400 pixels
Display aspect ratio : 16:9
Frame rate : 25.000 fps
Color space : YUV
Chroma subsampling : 4:2:0
Bit depth : 8 bits
Scan type : Progressive
Compression mode : Lossy
Bits/(Pixel*Frame) : 0.249
Stream size : 1.34 GiB (93%)
Writing library : XviD 64

Audio
ID : 1
Format : MPEG Audio
Format version : Version 1
Format profile : Layer 3
Mode : Joint stereo
Mode extension : MS Stereo
Codec ID : 55
Codec ID/Hint : MP3
Duration : 1h 46mn
Bit rate mode : Constant
Bit rate : 128 Kbps
Channel(s) : 2 channels
Sampling rate : 48.0 KHz
Compression mode : Lossy
Stream size : 97.7 MiB (7%)
Alignment : Aligned on interleaves
Interleave, duration : 40 ms (1.00 video frame)
Interleave, preload duration : 504 ms
Writing library : LAME3.100



   Похожие торренты   Торрент   Размер 
В этой теме нет новых непрочитанных сообщений. XI Зимние Паралимпийские игры. Сочи. Церемония закрытия [Спорт 1] (2014) DVB

66 | 12

2.37 ГБ

В этой теме нет новых непрочитанных сообщений. XI Зимние Паралимпийские игры. Сочи. Церемония закрытия [Спорт 1 HD] (2014) HDTVRip от MediaClub

223 | 32

1.47 ГБ

В этой теме нет новых непрочитанных сообщений. XI Зимние Паралимпийские игры. Сочи. Церемония закрытия [Спорт 1 HD] (2014) HDTV 1080i от MediaClub

36 | 89

5.64 ГБ

В этой теме нет новых непрочитанных сообщений. XI Зимние Паралимпийские игры. Сочи. Церемония закрытия [Россия HD] (2014) HDTV 1080i

99 | 32

7.28 ГБ

В этой теме нет новых непрочитанных сообщений. XXII зимние Олимпийские игры. Сочи. Церемония открытия + Церемония Закрытия [Спорт 1HD] (2014) HDTV 1080i

336 | 86

12.59 ГБ

В этой теме нет новых непрочитанных сообщений. XI Зимние Паралимпийские игры. Сочи. Церемония открытия [Спорт 1 HD] (2014) HDTVRip от MediaClub

758 | 185

1.97 ГБ

В этой теме нет новых непрочитанных сообщений. XI Зимние Паралимпийские игры. Сочи. Церемония открытия [Спорт 1 HD] (2014) HDTV 1080i от MediaClub

453 | 272

7.8 ГБ




Вы не можете начинать темы
Вы не можете отвечать на сообщения
Вы не можете редактировать свои сообщения
Вы не можете удалять свои сообщения
Вы не можете добавлять вложения

Перейти:  
Для Мосгорсуда, Роскомнадзора и рекламодателей: mosgorsud-torrent[собачка]yandex.ru
 Вход
ppkBB3cker v.2 © 2008-2014 @ PPK
[ Time : 0.046s | 16 Queries | GZIP : Off ]

Торрент трекер RUTOR.IN, Не можете зайти на rutor.org? Какой новый адрес рутор? Какое зеркало рутор? Не работает rutor.org и зеркала? Тогда наш торрент специально для вас. Rutor.in неофициальное зеркало rutor. В случае если у Вас заблокирован rutor или вдруг Вы не можете на него зайти, то Вы без труда сможете скачать бесплатно и без рекламы последние новинки кино, игр, сериалов и прочего у нас, на Rutor.in. Не нужно использовать прокси, чтобы зайти на рутор, достаточно воспользоваться нашим ресурсом. Все новые фильмы, игры, сериалы, книги и музыка за 2013 и 2014 годы через торрент бесплатно. Скачивайте фильмы в хорошем качестве, игры для пк, xbox, playstation без регистрации. У нас вы найдете новые Зарубежные сериалы и Русские сериалы 2013, 2014, 2015 годов. Оставайтесь с нами, качайте любимые фильмы, игры, сериалы, книги и музыку.
cron