img image001 image001 image001 image001 image001 image001 image001 image001 image001 image001 image001 image001 image001 image001 image001

Planets Sun Sun Sun
Статистика раздачи
Автор: Nickolas3434 | Размер: 2.37 ГБ | Добавлен: 18 мар 2014
Раздают: 66    Качают: 12
Скачать торрент
Скачать торрент
Описание торрента

СообщениеДобавлено: 18 мар 2014 

XI Зимние Паралимпийские Игры 2014. Церемония закрытия. Спорт 1

Комментарий: Профессиональный
Язык комментариев: Русский (Сергей Брилев и Дмитрий Губерниев)
Продолжительность: 01:46:43
Описание: Торжественная Церемония закрытия XI зимних Паралимпийских игр 2014 в Сочи.
Трансляция полная, реклам во время трансляции не было!

Автор рипа: sanchez2011
Качество: DVB
Формат: MPEG-PS
Видео кодек: MPEG2
Аудио кодек: MP2
Видео: MPEG2 Video 720x576 (16:9) 25.00fps 3000kbps
Аудио: MPEG Audio Layer 2 48000Hz stereo 192kbps





General
Complete name : E:Паралимпиада 2014Паралимпиада 2014. Закрытие.mpg
Format : MPEG-PS
File size : 2.37 GiB
Duration : 1h 46mn
Overall bit rate mode : Variable
Overall bit rate : 3 173 Kbps

Video
ID : 224 (0xE0)
Format : MPEG Video
Format version : Version 2
Format profile : Main@Main
Format settings, BVOP : Yes
Format settings, Matrix : Custom
Format settings, GOP : Variable
Duration : 1h 46mn
Bit rate mode : Variable
Bit rate : 2 918 Kbps
Maximum bit rate : 15.0 Mbps
Width : 720 pixels
Height : 576 pixels
Display aspect ratio : 16:9
Frame rate : 25.000 fps
Standard : PAL
Color space : YUV
Chroma subsampling : 4:2:0
Bit depth : 8 bits
Scan type : Interlaced
Scan order : Top Field First
Compression mode : Lossy
Bits/(Pixel*Frame) : 0.281
Time code of first frame : 00:00:00:00
Time code source : Group of pictures header
Stream size : 2.18 GiB (92%)

Audio
ID : 192 (0xC0)
Format : MPEG Audio
Format version : Version 1
Format profile : Layer 2
Duration : 1h 46mn
Bit rate mode : Constant
Bit rate : 192 Kbps
Channel(s) : 2 channels
Sampling rate : 48.0 KHz
Compression mode : Lossy
Delay relative to video : 76ms
Stream size : 147 MiB (6%)



   Похожие торренты   Торрент   Размер 
В этой теме нет новых непрочитанных сообщений. XI Зимние Паралимпийские игры. Сочи. Церемония закрытия [Спорт 1] (2014) SATRip

74 | 16

1.44 ГБ

В этой теме нет новых непрочитанных сообщений. XI Зимние Паралимпийские игры. Сочи. Церемония закрытия [Спорт 1 HD] (2014) HDTVRip от MediaClub

223 | 32

1.47 ГБ

В этой теме нет новых непрочитанных сообщений. XI Зимние Паралимпийские игры. Сочи. Церемония закрытия [Спорт 1 HD] (2014) HDTV 1080i от MediaClub

36 | 89

5.64 ГБ

В этой теме нет новых непрочитанных сообщений. XI Зимние Паралимпийские игры. Сочи. Церемония закрытия [Россия HD] (2014) HDTV 1080i

99 | 32

7.28 ГБ

В этой теме нет новых непрочитанных сообщений. XXII зимние Олимпийские игры. Сочи. Церемония открытия + Церемония Закрытия [Спорт 1HD] (2014) HDTV 1080i

336 | 86

12.59 ГБ

В этой теме нет новых непрочитанных сообщений. XI Зимние Паралимпийские игры. Сочи. Церемония открытия [Спорт 1 HD] (2014) HDTVRip от MediaClub

758 | 185

1.97 ГБ

В этой теме нет новых непрочитанных сообщений. XI Зимние Паралимпийские игры. Сочи. Церемония открытия [Спорт 1 HD] (2014) HDTV 1080i от MediaClub

453 | 272

7.8 ГБ




Вы не можете начинать темы
Вы не можете отвечать на сообщения
Вы не можете редактировать свои сообщения
Вы не можете удалять свои сообщения
Вы не можете добавлять вложения

Перейти:  
Для Мосгорсуда, Роскомнадзора и рекламодателей: mosgorsud-torrent[собачка]yandex.ru
 Вход
ppkBB3cker v.2 © 2008-2014 @ PPK
[ Time : 0.021s | 15 Queries | GZIP : Off ]

Торрент трекер RUTOR.IN, Не можете зайти на rutor.org? Какой новый адрес рутор? Какое зеркало рутор? Не работает rutor.org и зеркала? Тогда наш торрент специально для вас. Rutor.in неофициальное зеркало rutor. В случае если у Вас заблокирован rutor или вдруг Вы не можете на него зайти, то Вы без труда сможете скачать бесплатно и без рекламы последние новинки кино, игр, сериалов и прочего у нас, на Rutor.in. Не нужно использовать прокси, чтобы зайти на рутор, достаточно воспользоваться нашим ресурсом. Все новые фильмы, игры, сериалы, книги и музыка за 2013 и 2014 годы через торрент бесплатно. Скачивайте фильмы в хорошем качестве, игры для пк, xbox, playstation без регистрации. У нас вы найдете новые Зарубежные сериалы и Русские сериалы 2013, 2014, 2015 годов. Оставайтесь с нами, качайте любимые фильмы, игры, сериалы, книги и музыку.