img image001 image001 image001 image001 image001 image001 image001 image001 image001 image001 image001 image001 image001 image001 image001

Planets Sun Sun Sun
Статистика раздачи
Автор: Nickolas3434 | Размер: 10.28 ГБ | Добавлен: 25 мар 2014
Раздают: 241    Качают: 77
Скачать торрент
Скачать торрент
Описание торрента

СообщениеДобавлено: 25 мар 2014 


Вид спорта: Футбол
Год выпуска: 23.03.2014
Язык комментариев: (В.Уткин)
Участники: Реал Мадрид - Барселона

Описание: Мадрид (Испания). Стадион Сантьяго Бернабеу.
29-й тур 24 марта 2014 года, понедельник. 00:00 мск
Главный судья: Альберто Ундиано Мальенко (Памплона, Испания)
Матч 1 (26.10.2013) - 1:2. (Севилья, Испания)

Автор рипа.записи: Mr/ Drax

Качество: HDTV
Продолжительность: 01:45:48

Формат: TS
Видео кодек: H.264
Аудио кодек: MP2
Свойства видео: 1920x1080, 25,000 кадров/сек, 12.9 Mbps
Свойства аудио: 48,0 КГц, 2ch stereo, 192 Кбит/сек

3-4
Complete name : H:FootballИспанияR.Madrid vs. Barcelona. 23.03.2014. 1080i1 time.ts
Format : MPEG-TS
File size : 5.09 GiB
Duration : 52mn 46s
Overall bit rate mode : Variable
Overall bit rate : 13.8 Mbps

Video
ID : 301 (0x12D)
Menu ID : 1 (0x1)
Format : AVC
Format/Info : Advanced Video Codec
Format profile : High@L4.0
Format settings, CABAC : Yes
Format settings, ReFrames : 3 frames
Codec ID : 27
Duration : 52mn 46s
Bit rate : 12.9 Mbps
Width : 1 920 pixels
Height : 1 080 pixels
Display aspect ratio : 16:9
Frame rate : 25.000 fps
Standard : Component
Color space : YUV
Chroma subsampling : 4:2:0
Bit depth : 8 bits
Scan type : Interlaced
Scan order : Top Field First
Bits/(Pixel*Frame) : 0.249
Stream size : 4.77 GiB (94%)
Color primaries : BT.709
Transfer characteristics : BT.709
Matrix coefficients : BT.709

Audio
ID : 401 (0x191)
Menu ID : 1 (0x1)
Format : MPEG Audio
Format version : Version 1
Format profile : Layer 2
Codec ID : 3
Duration : 52mn 46s
Bit rate mode : Constant
Bit rate : 192 Kbps
Channel count : 2 channels
Sampling rate : 48.0 KHz
Compression mode : Lossy
Stream size : 72.5 MiB (1%)
Language : Russian



   Похожие торренты   Торрент   Размер 
В этой теме нет новых непрочитанных сообщений. Футбол. Чемпионат Испании 2014-15. 28-й тур. Эль Класико. Барселона - Реал Мадрид [22.03] (2015) HDTV 1080i

40 | 3

8.44 ГБ

В этой теме нет новых непрочитанных сообщений. Футбол. Кубок Испании 2013-14. Финал. Барселона - Реал Мадрид [Спорт 1] (2014) HDTV 1080i от MediaClub

324 | 167

6.64 ГБ

В этой теме нет новых непрочитанных сообщений. Футбол. Чемпионат Испании 2012-13. 7-й тур. Барселона - Реал Мадрид (2012) HDTV 1080i

1 | 0

9.94 ГБ

В этой теме нет новых непрочитанных сообщений. Футбол. Чемпионат Испании 2015-2016. 12-й тур. Реал Мадрид — Барселона [21.11] (2015) HDTV 1080i

29 | 0

8.91 ГБ

В этой теме нет новых непрочитанных сообщений. Футбол. Чемпионат Испании 2013-14. 27 тур. Реал Мадрид - Леванте [09.03] (2014) HDTV 1080i

14 | 13

9.56 ГБ

В этой теме нет новых непрочитанных сообщений. Футбол. Кубок Испании. 1/2 финала. Первый матч. Реал Мадрид - Барселона (2013) HDTV 1080i

0 | 1

10.54 ГБ

В этой теме нет новых непрочитанных сообщений. Футбол. Чемпионат Испании 2014-15. 21-й тур. Реал Мадрид - Реал Сосьедад [31.01] (2015) HDTV 1080i

2 | 3

8.87 ГБ




Вы не можете начинать темы
Вы не можете отвечать на сообщения
Вы не можете редактировать свои сообщения
Вы не можете удалять свои сообщения
Вы не можете добавлять вложения

Перейти:  
Для Мосгорсуда, Роскомнадзора и рекламодателей: mosgorsud-torrent[собачка]yandex.ru
 Вход
ppkBB3cker v.2 © 2008-2014 @ PPK
[ Time : 0.041s | 15 Queries | GZIP : Off ]

Торрент трекер RUTOR.IN, Не можете зайти на rutor.org? Какой новый адрес рутор? Какое зеркало рутор? Не работает rutor.org и зеркала? Тогда наш торрент специально для вас. Rutor.in неофициальное зеркало rutor. В случае если у Вас заблокирован rutor или вдруг Вы не можете на него зайти, то Вы без труда сможете скачать бесплатно и без рекламы последние новинки кино, игр, сериалов и прочего у нас, на Rutor.in. Не нужно использовать прокси, чтобы зайти на рутор, достаточно воспользоваться нашим ресурсом. Все новые фильмы, игры, сериалы, книги и музыка за 2013 и 2014 годы через торрент бесплатно. Скачивайте фильмы в хорошем качестве, игры для пк, xbox, playstation без регистрации. У нас вы найдете новые Зарубежные сериалы и Русские сериалы 2013, 2014, 2015 годов. Оставайтесь с нами, качайте любимые фильмы, игры, сериалы, книги и музыку.