img image001 image001 image001 image001 image001 image001 image001 image001 image001 image001 image001 image001 image001 image001 image001

Planets Sun Sun Sun
Статистика раздачи
Автор: Nickolas3434 | Размер: 9.76 ГБ | Добавлен: 25 мар 2014
Раздают: 0    Качают: 3
Скачать торрент
Скачать торрент
Описание торрента

СообщениеДобавлено: 25 мар 2014 

WSBK. 2014. 1/14. Phillip Island. Гонка 1-2, Supersport (Eurosport 2 HD)

Вид спорта: Мотогонки
Дата/Год выпуска: 23.02.14
Язык комментариев: русский

Автор записи: SashaR.

Качество: DVB-S2 Remux
Формат видео: TS
Видео: AVC, 1920x1080 (16:9), 8 214 Kbps, 25 fps
Аудио: MP2, 192 Kbps, 48.0 kHz, 2 channels
E:РаздачиWorld Superbike 2014. WSBK. Этап 01. Phillip Island.ts
General #6
ID : 6 (0x6)
Complete name : E:РаздачиWorld Superbike 2014. WSBK. Этап 01. Phillip Island.ts
Format : MPEG-TS
File size : 9.76 GiB
Duration : 2h 15mn
Overall bit rate mode : Variable
Overall bit rate : 10.3 Mbps
Video #538
ID : 538 (0x21A)
Menu ID : 1 (0x1)
Format : AVC
Format/Info : Advanced Video Codec
Format profile : High@L4.0
Format settings, CABAC : Yes
Format settings, ReFrames : 4 frames
Codec ID : 27
Duration : 2h 7mn
Bit rate : 9 615 Kbps
Width : 1 920 pixels
Height : 1 080 pixels
Display aspect ratio : 16:9
Frame rate : 25.000 fps
Color space : YUV
Chroma subsampling : 4:2:0
Bit depth : 8 bits
Scan type : MBAFF
Scan order : Top Field First
Bits/(Pixel*Frame) : 0.185
Stream size : 8.59 GiB (88%)
Language : English
Color primaries : BT.709
Transfer characteristics : BT.709
Matrix coefficients : BT.709
Audio #5386
ID : 5386 (0x150A)
Menu ID : 1 (0x1)
Format : MPEG Audio
Format version : Version 1
Format profile : Layer 2
Codec ID : 4
Duration : 2h 7mn
Bit rate mode : Constant
Bit rate : 192 Kbps
Channel count : 2 channels
Sampling rate : 48.0 KHz
Compression mode : Lossy
Delay relative to video : 112ms
Stream size : 176 MiB (2%)
Language : German

02:15:25







   Похожие торренты   Торрент   Размер 
В этой теме нет новых непрочитанных сообщений. Мотоспорт. WSBK. 2014. 1/14. Phillip Island. Квалификация, Гонка, Supersport (2014) HDTVRip 720p | 50 fps

3 | 6

5.32 ГБ

В этой теме нет новых непрочитанных сообщений. Мотоспорт. World Superbike (WSBK). 2013. 1/15. Phillip Island. Гонка [Eurosport HD, Feed] (2013) HDTVRip-AVC 720p

0 | 2

10.25 ГБ

В этой теме нет новых непрочитанных сообщений. Мотоспорт. World Superbike (WSBK). SuperSport, SuperStock 600 - 2013. Этап 09. Silverstone (UK) (2013) DVB-S2 Remux

0 | 1

22.87 ГБ

В этой теме нет новых непрочитанных сообщений. Мотоспорт. WSBK Superbike 2015. 01/13. Австралия, Phillip Island [22.02] (2015) HDTV 1080i

8 | 3

10.71 ГБ

В этой теме нет новых непрочитанных сообщений. Мотоспорт. WSBK 2014. Round06. Sepang (Malaysia). Eurosport HD (2014) DVB-S2 Remux

2 | 6

11.11 ГБ

В этой теме нет новых непрочитанных сообщений. Мотоспорт. World Superbike (WSBK) 2013. Этап 08, Гонка 1 Moscow Raceway (Россия). Гонка 1 (2013) DVB-S2 Remux

3 | 2

5.71 ГБ

В этой теме нет новых непрочитанных сообщений. Мотоспорт. World Superbike 2014. WSBK. Всемирный супербайк. 01 Phillip Isl. (2014) SATRip

7 | 3

2.6 ГБ




Вы не можете начинать темы
Вы не можете отвечать на сообщения
Вы не можете редактировать свои сообщения
Вы не можете удалять свои сообщения
Вы не можете добавлять вложения

Перейти:  
Для Мосгорсуда, Роскомнадзора и рекламодателей: mosgorsud-torrent[собачка]yandex.ru
 Вход
ppkBB3cker v.2 © 2008-2014 @ PPK
[ Time : 2.308s | 14 Queries | GZIP : Off ]

Торрент трекер RUTOR.IN, Не можете зайти на rutor.org? Какой новый адрес рутор? Какое зеркало рутор? Не работает rutor.org и зеркала? Тогда наш торрент специально для вас. Rutor.in неофициальное зеркало rutor. В случае если у Вас заблокирован rutor или вдруг Вы не можете на него зайти, то Вы без труда сможете скачать бесплатно и без рекламы последние новинки кино, игр, сериалов и прочего у нас, на Rutor.in. Не нужно использовать прокси, чтобы зайти на рутор, достаточно воспользоваться нашим ресурсом. Все новые фильмы, игры, сериалы, книги и музыка за 2013 и 2014 годы через торрент бесплатно. Скачивайте фильмы в хорошем качестве, игры для пк, xbox, playstation без регистрации. У нас вы найдете новые Зарубежные сериалы и Русские сериалы 2013, 2014, 2015 годов. Оставайтесь с нами, качайте любимые фильмы, игры, сериалы, книги и музыку.