img image001 image001 image001 image001 image001 image001 image001 image001 image001 image001 image001 image001 image001 image001 image001

Planets Sun Sun Sun
Статистика раздачи
Автор: Nickolas3434 | Размер: 6.89 ГБ | Добавлен: 03 апр 2014
Раздают: 7    Качают: 13
Скачать торрент
Скачать торрент
Описание торрента

СообщениеДобавлено: 03 апр 2014 

FIM Ice Speedway Gladiators 2014 / Финал 4 / Inzell (Germany) / Eurosport HD


Вид спорта: Спидвей на льду
Дата/Год выпуска: 24.03.14
Язык комментариев: русский, английский

Автор записи: SashaR.

Качество: DVB-S2 Remux
Формат видео: TS
Видео: AVC, 1920x1080, 16:9, 8 825 Kbps, 25 fps
Аудио: MP2, 192 Kbps, 48.0 kHz, 2 channels
Аудио: MP2, 192 Kbps, 48.0 kHz, 2 channels
H:РаздачиFIM Ice Speedway Gladiators 2014. Финал 4. Inzell (Germany) (Eurosport HD).ts
General #6
ID : 6 (0x6)
Complete name : H:РаздачиFIM Ice Speedway Gladiators 2014. Финал 4. Inzell (Germany) (Eurosport HD).ts
Format : MPEG-TS
File size : 6.89 GiB
Duration : 1h 41mn
Overall bit rate mode : Variable
Overall bit rate : 9 692 Kbps
Video #324
ID : 324 (0x144)
Menu ID : 12104 (0x2F48)
Format : AVC
Format/Info : Advanced Video Codec
Format profile : High@L4.0
Format settings, CABAC : Yes
Format settings, ReFrames : 3 frames
Codec ID : 27
Duration : 1h 41mn
Bit rate : 8 825 Kbps
Width : 1 920 pixels
Height : 1 080 pixels
Display aspect ratio : 16:9
Frame rate : 25.000 fps
Standard : Component
Color space : YUV
Chroma subsampling : 4:2:0
Bit depth : 8 bits
Scan type : Interlaced
Scan order : Top Field First
Bits/(Pixel*Frame) : 0.170
Stream size : 6.27 GiB (91%)
Color primaries : BT.709
Transfer characteristics : BT.709
Matrix coefficients : BT.709
Audio #404
ID : 404 (0x194)
Menu ID : 12104 (0x2F48)
Format : MPEG Audio
Format version : Version 1
Format profile : Layer 2
Codec ID : 4
Duration : 1h 41mn
Bit rate mode : Constant
Bit rate : 192 Kbps
Channel count : 2 channels
Sampling rate : 48.0 KHz
Compression mode : Lossy
Delay relative to video : -3ms
Stream size : 140 MiB (2%)
Language : Russian
Language, more info : Clean effects
Audio #424
ID : 424 (0x1A8)
Menu ID : 12104 (0x2F48)
Format : MPEG Audio
Format version : Version 1
Format profile : Layer 2
Codec ID : 4
Duration : 1h 41mn
Bit rate mode : Constant
Bit rate : 192 Kbps
Channel count : 2 channels
Sampling rate : 48.0 KHz
Compression mode : Lossy
Delay relative to video : 117ms
Stream size : 140 MiB (2%)
Language : English
Language, more info : Clean effects

01:41:45







   Похожие торренты   Торрент   Размер 
В этой теме нет новых непрочитанных сообщений. Спидвей. Чемпионат Европы 2013. Финал 2. Тольятти (Россия) [10.08] (2013) HDTV 1080i

0 | 2

11.89 ГБ

В этой теме нет новых непрочитанных сообщений. Спидвей. Чемпионат Европы 2013. Финал 2. Тольятти (Россия) [10.08] (2013) DVBRip-AVC | 50fps

2 | 3

2.41 ГБ

В этой теме нет новых непрочитанных сообщений. Мотоспорт. Speedway European Championships / Чемпионат Европы. 2013. Финал 4. Жешув (2013) DVBRip-AVC

0 | 1

2.84 ГБ

В этой теме нет новых непрочитанных сообщений. XXII зимние Олимпийские игры. Конькобежный спорт. Командные гонки. Мужчины - финал. Женщины - 1/2, финал [22.02] (2014) HDTV 1080i

1 | 6

20.76 ГБ

В этой теме нет новых непрочитанных сообщений. Футбол. Кубок Италии 2013-2014. Финал. Фиорентина - Наполи [03.05] (2014) HDTV 1080i

3 | 4

10.58 ГБ

В этой теме нет новых непрочитанных сообщений. Футбол. Лига Европы 2013-2014. Финал. Севилья (Испания) - Бенфика (Португалия) [14.05] (2014) HDTV 1080i

10 | 2

18.33 ГБ

В этой теме нет новых непрочитанных сообщений. Футбол. Кубок Испании 2013-14. Финал. Барселона - Реал Мадрид [Спорт 1] (2014) HDTV 1080i от MediaClub

324 | 167

6.64 ГБ




Вы не можете начинать темы
Вы не можете отвечать на сообщения
Вы не можете редактировать свои сообщения
Вы не можете удалять свои сообщения
Вы не можете добавлять вложения

Перейти:  
Для Мосгорсуда, Роскомнадзора и рекламодателей: mosgorsud-torrent[собачка]yandex.ru
 Вход
ppkBB3cker v.2 © 2008-2014 @ PPK
[ Time : 0.056s | 16 Queries | GZIP : Off ]

Торрент трекер RUTOR.IN, Не можете зайти на rutor.org? Какой новый адрес рутор? Какое зеркало рутор? Не работает rutor.org и зеркала? Тогда наш торрент специально для вас. Rutor.in неофициальное зеркало rutor. В случае если у Вас заблокирован rutor или вдруг Вы не можете на него зайти, то Вы без труда сможете скачать бесплатно и без рекламы последние новинки кино, игр, сериалов и прочего у нас, на Rutor.in. Не нужно использовать прокси, чтобы зайти на рутор, достаточно воспользоваться нашим ресурсом. Все новые фильмы, игры, сериалы, книги и музыка за 2013 и 2014 годы через торрент бесплатно. Скачивайте фильмы в хорошем качестве, игры для пк, xbox, playstation без регистрации. У нас вы найдете новые Зарубежные сериалы и Русские сериалы 2013, 2014, 2015 годов. Оставайтесь с нами, качайте любимые фильмы, игры, сериалы, книги и музыку.
cron