img image001 image001 image001 image001 image001 image001 image001 image001 image001 image001 image001 image001 image001 image001 image001

Planets Sun Sun Sun
Статистика раздачи
Автор: Nickolas3434 | Размер: 4.96 ГБ | Добавлен: 10 апр 2014
Раздают: 38    Качают: 10
Скачать торрент
Скачать торрент
Описание торрента

СообщениеДобавлено: 10 апр 2014 

Биатлон. Гонка Чемпионов 2014 в Москве

Вид спорта: Биатлон
Комментарий: Профессиональный
Язык комментариев: Русский (Дмитрий Губерниев)

Описание: Биатлон. Гонка Чемпионов 2014 в Москве. Два масс-старта (мужской и женский), смешанная эстафета, сюжеты, награждения, интервью и все такое. В общем полная трансляция.

Автор рипа: sanchez2011

Качество: HDTVRip
Формат: MKV
Видео кодек: AVC
Аудио кодек: MP3
Видео: MPEG4 Video (H264) 1280x720 (16:9) 25fps 3000kbps
Аудио: MPEG Audio Layer 3 48000Hz stereo 128kbps

Продолжительность: 03:45:20

General
Unique ID : 258177952176425975859836851661725911859 (0xC23B43D0FDF652C27424591C63CA4B33)
Complete name : E:TorrentБиатлон. Сезон 2013-2014Гонка Чемпионов 2014. Москва.mkv
Format : Matroska
Format version : Version 2
File size : 4.96 GiB
Duration : 3h 45mn
Overall bit rate : 3 151 Kbps
Writing application : XviD4PSP 6.0 / 53.6.0
Writing library : XviD4PSP 6.0 / 53.6.0

Video
ID : 1
Format : AVC
Format/Info : Advanced Video Codec
Format profile : High@L4.1
Format settings, CABAC : Yes
Format settings, ReFrames : 3 frames
Codec ID : V_MPEG4/ISO/AVC
Duration : 3h 45mn
Bit rate : 3 000 Kbps
Width : 1 280 pixels
Height : 720 pixels
Display aspect ratio : 16:9
Frame rate mode : Constant
Frame rate : 25.000 fps
Color space : YUV
Chroma subsampling : 4:2:0
Bit depth : 8 bits
Scan type : Progressive
Bits/(Pixel*Frame) : 0.130
Stream size : 4.66 GiB (94%)
Writing library : x264 core 116 r2019M 9cc407d
Encoding settings : cabac=1 / ref=3 / deblock=1:0:0 / analyse=0x3:0x133 / me=hex / subme=7 / psy=1 / psy_rd=1.00:0.20 / mixed_ref=1 / me_range=16 / chroma_me=1 / trellis=1 / 8x8dct=1 / cqm=0 / deadzone=21,11 / fast_pskip=1 / chroma_qp_offset=-3 / threads=8 / sliced_threads=0 / nr=0 / decimate=1 / interlaced=0 / bluray_compat=0 / constrained_intra=0 / bframes=3 / b_pyramid=1 / b_adapt=2 / b_bias=0 / direct=3 / weightb=1 / open_gop=0 / weightp=2 / keyint=250 / keyint_min=25 / scenecut=40 / intra_refresh=0 / rc_lookahead=40 / rc=abr / mbtree=1 / bitrate=3000 / ratetol=1.0 / qcomp=0.60 / qpmin=10 / qpmax=51 / qpstep=4 / ip_ratio=1.40 / aq=1:1.00
Default : Yes
Forced : No

Audio
ID : 2
Format : MPEG Audio
Format version : Version 1
Format profile : Layer 3
Mode : Joint stereo
Mode extension : MS Stereo
Codec ID : A_MPEG/L3
Codec ID/Hint : MP3
Duration : 3h 45mn
Bit rate mode : Constant
Bit rate : 128 Kbps
Channel(s) : 2 channels
Sampling rate : 48.0 KHz
Compression mode : Lossy
Stream size : 206 MiB (4%)
Writing library : LAME3.98.2
Language : Russian
Default : Yes
Forced : No



   Похожие торренты   Торрент   Размер 
В этой теме нет новых непрочитанных сообщений. Биатлон. Гонка Чемпионов. Москва [Спорт 1] [05.04] (2014) SATRip от MediaClub

425 | 169

3.01 ГБ

В этой теме нет новых непрочитанных сообщений. Биатлон. Гонка Чемпионов 2015. Тюмень (Россия) [05.04] (2014) HDTVRip 720p | 50 fps

23 | 9

3.27 ГБ

В этой теме нет новых непрочитанных сообщений. Биатлон. Кубок мира 2013/14. 5 этап. Гонка преследования. Мужчины. Рупольдинг (Германия) [Спорт 1 HD] [12.01] (2014) HDTVRip 720p | 50 fps

0 | 1

1.53 ГБ

В этой теме нет новых непрочитанных сообщений. Биатлон. Гонка чемпионов 2013. Москва. Все гонки. [Россия 2] [06.04] (2013) SATRip

0 | 2

2.56 ГБ

В этой теме нет новых непрочитанных сообщений. Биатлон. Гонка чемпионов 2013. Москва. Все гонки. [РОССИЯ HD] [06.04] (2013) HDTV 1080i

0 | 2

9.38 ГБ

В этой теме нет новых непрочитанных сообщений. XXII Зимние Олимпийские игры. Биатлон. Индивидуальная гонка. Женщины [Спорт 1 HD] [14.02] (2014) HDTVRip

530 | 49

1.29 ГБ

В этой теме нет новых непрочитанных сообщений. XXII Зимние Олимпийские игры. Биатлон. Мужчины. Индивидуальная гонка 20 км [Спорт 1HD] [13.02] (2014) HDTVRip

153 | 19

1.45 ГБ




Вы не можете начинать темы
Вы не можете отвечать на сообщения
Вы не можете редактировать свои сообщения
Вы не можете удалять свои сообщения
Вы не можете добавлять вложения

Перейти:  
Для Мосгорсуда, Роскомнадзора и рекламодателей: mosgorsud-torrent[собачка]yandex.ru
 Вход
ppkBB3cker v.2 © 2008-2014 @ PPK
[ Time : 0.049s | 15 Queries | GZIP : Off ]

cron