img image001 image001 image001 image001 image001 image001 image001 image001 image001 image001 image001 image001 image001 image001 image001

Planets Sun Sun Sun
Статистика раздачи
Автор: Nickolas3434 | Размер: 2.52 ГБ | Добавлен: 14 апр 2014
Раздают: 16    Качают: 9
Скачать торрент
Скачать торрент
Описание торрента

СообщениеДобавлено: 14 апр 2014 



Зенит (Санкт-Петербург) - Краснодар (Краснодар)






Год Выпуска: 2014
Вид Спорта: Футбол
Продолжительность: 01:04:22, 01:06;20
Комментарий: Орлов, Лукьянов, Стрепетов, Сологуб
Язык комментария: Русский

Описание:
Чемпионат России, 25-й тур.
12 апреля. С.Петербург. Стадион "Петровский".
Судья - Алексей Еськов (Москва).


Качество: HDTVRip
Формат: MKV
Видео: AVC, 2210 Кбит/сек, 1280x720, 25.000 кадр/сек
Аудио №1: MP3, 149 Кбит/сек, 2 канала, 48 КГц - Лукьянов, Стрепетов (100 ТВ)
Аудио №2: MP3, 149 Кбит/сек, 2 канала, 48 КГц - Сологуб (Радио Зенит)
Аудио №3: MP3, 149 Кбит/сек, 2 канала, 48 КГц - Орлов (НТВ+)

"Зенит": Лодыгин, Смольников, Нету, Ломбертс, Кришито, Файзулин, Витсель, Аршавин, Данни, Халк, Рондон.

Запасные: Зырянов, Мжельский, Костин, Лукович, Ансалди, Малафеев, Кержаков, Губочан

"Краснодар": Синицын, Енджейчик, Гранквист, Сигурдссон, Калешин, Газинский, Мамаев, Шипицин, Жоаозиньо, Вандерсон, Ари.

Запасные: Фильцов, Мартынович, Анджелкович, Комличенко, Тубич, Померко

Предупреждения: Калешин 19’, Кришито 42’, Нету 56’, Витсель 57’, Гранквист 65’







Автор записи/рипа: waPBX

Общее
Уникальный идентификатор : 238727044582495183721092593510196415510 (0xB3992807D762501D9CB8D635E7C78C16)
Полное имя : D:UserspapaDownloads(2014.04.12) Зенит - Краснодар1-й Тайм. Зенит - Краснодар.mkv
Формат : Matroska
Версия формата : Version 4 / Version 2
Размер файла : 1,21 Гбайт
Продолжительность : 1 ч. 4 м.
Режим общего битрейта : Переменный
Общий поток : 2682 Кбит/сек
Название фильма : рип waPBX
Дата кодирования : UTC 2014-04-13 09:46:18
Программа кодирования : mkvmerge v6.4.1 ('Omega Point') built on Sep 16 2013 22:05:10
Библиотека кодирования : libebml v1.3.0 + libmatroska v1.4.1

Видео
Идентификатор : 1
Формат : AVC
Формат/Информация : Advanced Video Codec
Профиль формата : High@L4.1
Параметр CABAC формата : Да
Параметр ReFrames формата : 6 кадров
Идентификатор кодека : V_MPEG4/ISO/AVC
Продолжительность : 1 ч. 4 м.
Ширина : 1280 пикселей
Высота : 720 пикселей
Соотношение сторон : 16:9
Режим частоты кадров : Постоянный
Частота кадров : 25,000 кадров/сек
Цветовое пространство : YUV
Субдискретизация насыщенности : 4:2:0
Битовая глубина : 8 бит
Тип развёртки : Прогрессивная
Библиотека кодирования : x264 core 130 r2273 b3065e6
Настройки программы : cabac=1 / ref=6 / deblock=1:0:0 / analyse=0x3:0x113 / me=hex / subme=6 / psy=0 / mixed_ref=1 / me_range=16 / chroma_me=1 / trellis=2 / 8x8dct=1 / cqm=0 / deadzone=21,11 / fast_pskip=1 / chroma_qp_offset=0 / threads=6 / lookahead_threads=1 / sliced_threads=0 / nr=0 / decimate=1 / interlaced=0 / bluray_compat=0 / constrained_intra=0 / bframes=3 / b_pyramid=2 / b_adapt=1 / b_bias=1 / direct=3 / weightb=1 / open_gop=0 / weightp=2 / keyint=250 / keyint_min=25 / scenecut=40 / intra_refresh=0 / rc_lookahead=40 / rc=crf / mbtree=1 / crf=27.0 / qcomp=0.60 / qpmin=0 / qpmax=69 / qpstep=4 / vbv_maxrate=62500 / vbv_bufsize=78125 / crf_max=0.0 / nal_hrd=none / ip_ratio=1.40 / aq=1:0.00
Язык : English
Default : Да
Forced : Нет
Основные цвета : BT.709
Характеристики трансфера : BT.709
Коэффициенты матрицы : BT.709

Аудио #1
Идентификатор : 2
Формат : MPEG Audio
Версия формата : Version 1
Профиль формата : Layer 3
Режим : Joint stereo
Расширение режима : MS Stereo
Идентификатор кодека : A_MPEG/L3
Идентификатор кодека/Подсказка : MP3
Продолжительность : 1 ч. 4 м.
Вид битрейта : Постоянный
Битрейт : 160 Кбит/сек
Каналы : 2 канала
Частота : 48,0 КГц
Метод сжатия : С потерями
Размер потока : 73,7 Мбайт (6%)
Заголовок : Лукьянов, Стрепетов
Библиотека кодирования : LAME3.96
Язык : Russian
Default : Нет
Forced : Нет

Аудио #2
Идентификатор : 3
Формат : MPEG Audio
Версия формата : Version 1
Профиль формата : Layer 3
Режим : Joint stereo
Расширение режима : MS Stereo
Идентификатор кодека : A_MPEG/L3
Идентификатор кодека/Подсказка : MP3
Продолжительность : 1 ч. 4 м.
Вид битрейта : Постоянный
Битрейт : 160 Кбит/сек
Каналы : 2 канала
Частота : 48,0 КГц
Метод сжатия : С потерями
Размер потока : 73,7 Мбайт (6%)
Заголовок : Сологуб
Библиотека кодирования : LAME3.96
Язык : Russian
Default : Нет
Forced : Нет

Аудио #3
Идентификатор : 4
Формат : MPEG Audio
Версия формата : Version 1
Профиль формата : Layer 3
Идентификатор кодека : A_MPEG/L3
Идентификатор кодека/Подсказка : MP3
Продолжительность : 1 ч. 4 м.
Вид битрейта : Переменный
Каналы : 2 канала
Частота : 48,0 КГц
Метод сжатия : С потерями
Заголовок : Орлов
Язык : Russian
Default : Да
Forced : Нет




   Похожие торренты   Торрент   Размер 
В этой теме нет новых непрочитанных сообщений. Футбол. Чемпионат России 2013-2014. 25-й тур. Зенит - Краснодар [12.04] (2014) HDTVRip 720p от waPBX

38 | 5

2.23 ГБ

В этой теме нет новых непрочитанных сообщений. Футбол. Чемпионат России 2013-14. 30-й тур. Кубань (Краснодар) - Зенит (Санкт-Петербург) [эфир от 15.05] (2014) HDTVRip 720p

16 | 3

3.43 ГБ

В этой теме нет новых непрочитанных сообщений. Футбол. Чемпионат России 2013-2014. 1-й тур. Краснодар - Зенит (Санкт-Петербург) (2013) HDTVRip 720p | 50 FPS

0 | 3

3.63 ГБ

В этой теме нет новых непрочитанных сообщений. Футбол. Чемпионат России 2013-2014. 3-й тур. Зенит (Санкт-Петербург) - Кубань (Краснодар) (2013) HDTVRip 720p | 50 FPS

1 | 2

3.72 ГБ

В этой теме нет новых непрочитанных сообщений. Футбол. Чемпионат России 2013-2014. 24-й тур. Зенит (Санкт-Петербург) - Рубин (Казань) [06.04] (2014) HDTVRip 720p от waPBX

27 | 30

2.26 ГБ

В этой теме нет новых непрочитанных сообщений. Футбол. Чемпионат России 2013-14. 22-й тур. Краснодар (Краснодар) - Спартак (Москва) [22.03] (2014) HDTV 1080i от waPBX

0 | 2

12.2 ГБ

В этой теме нет новых непрочитанных сообщений. Футбол. Чемпионат России 2013-14. 23-й тур. Амкар (Пермь) - Зенит (Санкт-Петербург) [29.03] (2014) HDTVRip 720p от waPBX

16 | 14

2.13 ГБ




Вы не можете начинать темы
Вы не можете отвечать на сообщения
Вы не можете редактировать свои сообщения
Вы не можете удалять свои сообщения
Вы не можете добавлять вложения

Перейти:  
Для Мосгорсуда, Роскомнадзора и рекламодателей: mosgorsud-torrent[собачка]yandex.ru
 Вход
ppkBB3cker v.2 © 2008-2014 @ PPK
[ Time : 0.054s | 14 Queries | GZIP : On ]

Торрент трекер RUTOR.IN, Не можете зайти на rutor.org? Какой новый адрес рутор? Какое зеркало рутор? Не работает rutor.org и зеркала? Тогда наш торрент специально для вас. Rutor.in неофициальное зеркало rutor. В случае если у Вас заблокирован rutor или вдруг Вы не можете на него зайти, то Вы без труда сможете скачать бесплатно и без рекламы последние новинки кино, игр, сериалов и прочего у нас, на Rutor.in. Не нужно использовать прокси, чтобы зайти на рутор, достаточно воспользоваться нашим ресурсом. Все новые фильмы, игры, сериалы, книги и музыка за 2013 и 2014 годы через торрент бесплатно. Скачивайте фильмы в хорошем качестве, игры для пк, xbox, playstation без регистрации. У нас вы найдете новые Зарубежные сериалы и Русские сериалы 2013, 2014, 2015 годов. Оставайтесь с нами, качайте любимые фильмы, игры, сериалы, книги и музыку.