img image001 image001 image001 image001 image001 image001 image001 image001 image001 image001 image001 image001 image001 image001 image001

Planets Sun Sun Sun
Статистика раздачи
Автор: Nickolas3434 | Размер: 7.16 ГБ | Добавлен: 19 апр 2014
Раздают: 44    Качают: 10
Скачать торрент
Скачать торрент
Описание торрента

СообщениеДобавлено: 19 апр 2014 

Формула 1 / Сезон 2014 / Этап 4 / Гран-при Китая. Шанхай / Свободная практика 1


Вид спорта: Формула 1
Дата выпуска: 18 апреля 2014
Комментарий: Профессиональный (Одноголосый)
Язык комментариев: Русский [Владимир Башмаков]
Описание: Гран-при Формулы 1 Бахрейна. Шанхай. Трасса Шанхай, 56 кругов по 5451 м, общая дистанция 305.066 км, рекорд круга 1:32.238 - M Schumacher (2004).

Автор записи, источник: sokolovda, IPTVRip (Прямой поток, без перекодировки)

Качество записи: HDTVRip
Формат записи: MPEG-TS
Видео кодек: H.264/AVC
Аудио кодек: MPEG Audio
Видео: MPEG4 Video (H264), 1920x1080 (16:9), 25fps, ~10200Kbps
Аудио: MPEG Audio, 48000Hz, stereo, 2 channels, 192kbps


Продолжительность: 1:40:04

General
ID : 16343 (0x3FD7)
Format : MPEG-TS
File size : 7.16 GiB
Duration : 1h 40mn
Overall bit rate : 10.2 Mbps

Video
ID : 69 (0x45)
Menu ID : 1 (0x1)
Format : AVC
Format/Info : Advanced Video Codec
Format profile : High@L4.0
Format settings, CABAC : Yes
Format settings, ReFrames : 3 frames
Codec ID : 27
Duration : 1h 40mn
Bit rate : 9 545 Kbps
Width : 1 920 pixels
Height : 1 080 pixels
Display aspect ratio : 16:9
Frame rate : 25.000 fps
Standard : Component
Color space : YUV
Chroma subsampling : 4:2:0
Bit depth : 8 bits
Scan type : Interlaced
Scan order : Top Field First
Bits/(Pixel*Frame) : 0.184
Stream size : 6.67 GiB (93%)
Color primaries : BT.709-5, BT.1361, IEC 61966-2-4, SMPTE RP177
Transfer characteristics : BT.709-5, BT.1361
Matrix coefficients : BT.709-5, BT.1361, IEC 61966-2-4 709, SMPTE RP177

Audio
ID : 68 (0x44)
Menu ID : 1 (0x1)
Format : MPEG Audio
Format version : Version 1
Format profile : Layer 2
Codec ID : 3
Duration : 1h 40mn
Bit rate mode : Constant
Bit rate : 192 Kbps
Channel(s) : 2 channels
Sampling rate : 48.0 KHz
Compression mode : Lossy
Delay relative to video : -924ms
Stream size : 137 MiB (2%)
Language : Russian



   Похожие торренты   Торрент   Размер 
В этой теме нет новых непрочитанных сообщений. Формула 1. Сезон 2013. Этап 03. Гран-при Китая. Полный уик-энд Гран-при Китая [Спорт 1 HD] (2013) HDTV 1080i

1 | 3

44.5 ГБ

В этой теме нет новых непрочитанных сообщений. Формула 1. Этап 4. Гран-при Китая. 1-ая практика (2014) HDTVRip

124 | 25

1.44 ГБ

В этой теме нет новых непрочитанных сообщений. Формула 1: Гран-При Китая. Квалификация. 4 этап [Спорт 1] (2014) HDTV 1080i от MediaClub

119 | 22

8.66 ГБ

В этой теме нет новых непрочитанных сообщений. Формула 1. Этап 3. Гран-при Бахрейна. 3-ая практика (2014) HDTV 1080i

106 | 40

5.95 ГБ

В этой теме нет новых непрочитанных сообщений. Формула 1. Этап 3. Гран-при Бахрейна. 2-ая практика (2014) HDTV 1080i

19 | 5

8.6 ГБ

В этой теме нет новых непрочитанных сообщений. Формула 1. Этап 3. Гран-при Бахрейна. 1-ая практика (2014) HDTV 1080i

14 | 6

6.16 ГБ

В этой теме нет новых непрочитанных сообщений. Формула 1. Этап 2. Гран-при Малайзии. 1-ая практика (2014) HDTV 1080i

9 | 4

9.71 ГБ




Вы не можете начинать темы
Вы не можете отвечать на сообщения
Вы не можете редактировать свои сообщения
Вы не можете удалять свои сообщения
Вы не можете добавлять вложения

Перейти:  
Для Мосгорсуда, Роскомнадзора и рекламодателей: mosgorsud-torrent[собачка]yandex.ru
 Вход
ppkBB3cker v.2 © 2008-2014 @ PPK
[ Time : 0.033s | 15 Queries | GZIP : Off ]

Торрент трекер RUTOR.IN, Не можете зайти на rutor.org? Какой новый адрес рутор? Какое зеркало рутор? Не работает rutor.org и зеркала? Тогда наш торрент специально для вас. Rutor.in неофициальное зеркало rutor. В случае если у Вас заблокирован rutor или вдруг Вы не можете на него зайти, то Вы без труда сможете скачать бесплатно и без рекламы последние новинки кино, игр, сериалов и прочего у нас, на Rutor.in. Не нужно использовать прокси, чтобы зайти на рутор, достаточно воспользоваться нашим ресурсом. Все новые фильмы, игры, сериалы, книги и музыка за 2013 и 2014 годы через торрент бесплатно. Скачивайте фильмы в хорошем качестве, игры для пк, xbox, playstation без регистрации. У нас вы найдете новые Зарубежные сериалы и Русские сериалы 2013, 2014, 2015 годов. Оставайтесь с нами, качайте любимые фильмы, игры, сериалы, книги и музыку.