img image001 image001 image001 image001 image001 image001 image001 image001 image001 image001 image001 image001 image001 image001 image001

Planets Sun Sun Sun
Статистика раздачи
Автор: Nickolas3434 | Размер: 3.65 ГБ | Добавлен: 28 апр 2014
Раздают: 563    Качают: 76
Скачать торрент
Скачать торрент
Описание торрента

СообщениеДобавлено: 28 апр 2014 

Информация о фильме
Название: Железное поколение
Оригинальное название: Generation Iron
Год выхода: 2013
Жанр: документальный, драма, спорт
Режиссер: Влад Юдин
В ролях: Микки Рурк, Фил Хит, Кай Грин, Бренч Уоррен, Деннис Вольф, Виктор Мартинес, Арнольд Шварценеггер, Майкл Джей Уайт, Лу Ферриньо, Баста Раймс

О фильме:
Документальный фильм, который рассказывает о том, как тренируются культуристы, готовясь к конкурсу «Мистер Олимпия».



Страна: США
Студия: American Media / THE VLADAR COMPANY
Продолжительность: 01:47:00
Перевод: Любительский двухголосый [DO4A]

Файл
Кодек: MPEG-4
Качество: WEB-DLRip [720p]
Видео: AVC, 1280x716 (16:9), 23.976 fps ~ 4140 Kbps, 0.189 bit / pixel
Звук:
Аудио #1: MP3, 48 KHz 2 ch ~ 256 Kb/s (rus)
Аудио #2: AC3, 48 KHz 6 ch ~ 384 Kb/s (eng)
Субтитры: нет

Общее
Уникальный идентификатор : 220164287435653458342914745236928883889 (0xA5A21971575CAEA8BD732B5BD9F86CB1)
Полное имя : Q:TorFGeneration_Iron.2013.WEB-DLRip[720p].mkv
Формат : Matroska
Версия формата : Version 4 / Version 2
Размер файла : 3,65 Гбайт
Продолжительность : 1 ч. 47 м.
Общий поток : 4881 Кбит/сек
Дата кодирования : UTC 2014-04-13 18:28:58
Программа кодирования : mkvmerge v6.8.0 ('Theme for Great Cities') 64bit built on Mar 2 2014 21:34:26
Библиотека кодирования : libebml v1.3.0 + libmatroska v1.4.1

Видео
Идентификатор : 1
Формат : AVC
Формат/Информация : Advanced Video Codec
Профиль формата : High@L3.1
Параметр CABAC формата : Нет
Параметр ReFrames формата : 2 кадра
Идентификатор кодека : V_MPEG4/ISO/AVC
Продолжительность : 1 ч. 47 м.
Битрейт : 4144 Кбит/сек
Ширина : 1280 пикселей
Высота : 716 пикселей
Соотношение сторон : 16:9
Частота кадров : 23,976 кадра/сек
Цветовое пространство : YUV
Субдискретизация насыщенности : 4:2:0
Битовая глубина : 8 бит
Тип развёртки : Прогрессивная
Бит/(Пиксели*Кадры) : 0.189
Размер потока : 3,10 Гбайт (85%)
Язык : English
Default : Да
Forced : Нет
Основные цвета : BT.709-5, BT.1361, IEC 61966-2-4, SMPTE RP177
Характеристики трансфера : BT.709-5, BT.1361
Коэффициенты матрицы : BT.709-5, BT.1361, IEC 61966-2-4 709, SMPTE RP177

Аудио #1
Идентификатор : 2
Формат : MPEG Audio
Версия формата : Version 1
Профиль формата : Layer 3
Идентификатор кодека : A_MPEG/L3
Идентификатор кодека/Подсказка : MP3
Продолжительность : 1 ч. 47 м.
Вид битрейта : Постоянный
Битрейт : 256 Кбит/сек
Каналы : 2 канала
Частота : 48,0 КГц
Метод сжатия : С потерями
Размер потока : 196 Мбайт (5%)
Язык : Russian
Default : Да
Forced : Нет

Аудио #2
Идентификатор : 3
Формат : AC-3
Формат/Информация : Audio Coding 3
Расширение режима : CM (complete main)
Идентификатор кодека : A_AC3
Продолжительность : 1 ч. 47 м.
Вид битрейта : Постоянный
Битрейт : 384 Кбит/сек
Каналы : 6 каналов
Расположение каналов : Front: L C R, Side: L R, LFE
Частота : 48,0 КГц
Битовая глубина : 16 бит
Метод сжатия : С потерями
Размер потока : 294 Мбайт (8%)
Язык : English
Default : Нет
Forced : Нет

Меню
00:00:00.000 : en:Chapter 1
00:06:51.000 : en:Chapter 2
00:15:32.000 : en:Chapter 3
00:26:00.000 : en:Chapter 4
00:35:25.000 : en:Chapter 5
00:44:17.000 : en:Chapter 6
00:52:49.000 : en:Chapter 7
01:00:53.000 : en:Chapter 8
01:08:14.000 : en:Chapter 9
01:16:51.000 : en:Chapter 10
01:26:13.000 : en:Chapter 11
01:35:29.000 : en:Chapter 12
01:42:36.000 : en:Chapter 13





   Похожие торренты   Торрент   Размер 
В этой теме нет новых непрочитанных сообщений. Силовой экстрим. Железное поколение / Generation Iron (2013) WEB-DLRip

314 | 18

2.18 ГБ

В этой теме нет новых непрочитанных сообщений. Железное поколение / Generation Iron (2013) BDRip-AVC | iPad | L2

740 | 142

2.92 ГБ

В этой теме нет новых непрочитанных сообщений. Железное поколение 2 / Generation Iron 2 (2017) WEBRip | L1

1 | 0

2.2 ГБ

В этой теме нет новых непрочитанных сообщений. Железное поколение 2 / Generation Iron 2 (2017) WEBRip | L1

32 | 3

1.46 ГБ

В этой теме нет новых непрочитанных сообщений. Железное поколение 2 / Generation Iron 2 (2017) WEBRip от ExKinoRay | L1

27 | 1

1.45 ГБ

В этой теме нет новых непрочитанных сообщений. Железное поколение 2 / Generation Iron 2 (2017) WEBRip 1080p от BadBajo | L1

36 | 2

3.85 ГБ

В этой теме нет новых непрочитанных сообщений. Виталий Ефремочкин, Новое Поколение - New Generation (2000-2013) MP3

13 | 6

358.04 МБ




Вы не можете начинать темы
Вы не можете отвечать на сообщения
Вы не можете редактировать свои сообщения
Вы не можете удалять свои сообщения
Вы не можете добавлять вложения

Перейти:  
Для Мосгорсуда, Роскомнадзора и рекламодателей: mosgorsud-torrent[собачка]yandex.ru
 Вход
ppkBB3cker v.2 © 2008-2014 @ PPK
[ Time : 0.027s | 16 Queries | GZIP : Off ]

cron