img image001 image001 image001 image001 image001 image001 image001 image001 image001 image001 image001 image001 image001 image001 image001

Planets Sun Sun Sun
Статистика раздачи
Автор: Nickolas3434 | Размер: 22.35 ГБ | Добавлен: 25 май 2014
Раздают: 0    Качают: 2
Скачать торрент
Скачать торрент
Описание торрента

СообщениеДобавлено: 25 май 2014 

DTM 2014. 1/10 Hockenheim

Вид спорта: Автогонки
Дата/Год выпуска: 03.05.14
Язык комментариев: немецкий, русский (Наталья Фабричнова, Алексей Попов)

Автор записи: SashaR.

Качество: DVB-S2 Remux
Формат видео: TS

Das Erste HD
Видео: AVC, 1280x720, 16:9, 10.5 Mbps, 50 fps
Аудио: MP2, 256 Kbps, 48.0 kHz, 2 channels
Аудио: MP2, 256 Kbps, 48.0 kHz, 2 channels
Аудио: AC-3, 448 Kbps, 48.0 kHz, 2 channels

Спорт 1 HD
Видео: AVC, 1920x1080, 16:9, 12.8 Mbps, 25 fps
Аудио: MP2, 192 Kbps, 48.0 kHz, 2 channels

H:РаздачиDTM 2014. Этап 01. HockenheimКвалификация (Das Erste HD).ts
General #6
ID : 6 (0x6)
Complete name : H:РаздачиDTM 2014. Этап 01. HockenheimКвалификация (Das Erste HD).ts
Format : MPEG-TS
File size : 5.54 GiB
Duration : 1h 5mn
Overall bit rate mode : Variable
Overall bit rate : 12.1 Mbps
Video #5101
ID : 5101 (0x13ED)
Menu ID : 10301 (0x283D)
Format : AVC
Format/Info : Advanced Video Codec
Format profile : High@L4.0
Format settings, CABAC : Yes
Format settings, ReFrames : 4 frames
Codec ID : 27
Duration : 1h 5mn
Bit rate : 10.5 Mbps
Width : 1 280 pixels
Height : 720 pixels
Display aspect ratio : 16:9
Frame rate : 50.000 fps
Color space : YUV
Chroma subsampling : 4:2:0
Bit depth : 8 bits
Scan type : Progressive
Bits/(Pixel*Frame) : 0.228
Stream size : 4.82 GiB (87%)
Audio #5102
ID : 5102 (0x13EE)
Menu ID : 10301 (0x283D)
Format : MPEG Audio
Format version : Version 1
Format profile : Layer 2
Codec ID : 3
Duration : 1h 5mn
Bit rate mode : Constant
Bit rate : 256 Kbps
Channel count : 2 channels
Sampling rate : 48.0 KHz
Compression mode : Lossy
Delay relative to video : 57ms
Stream size : 120 MiB (2%)
Language : German
Audio #5103
ID : 5103 (0x13EF)
Menu ID : 10301 (0x283D)
Format : MPEG Audio
Format version : Version 1
Format profile : Layer 2
Codec ID : 3
Duration : 1h 5mn
Bit rate mode : Constant
Bit rate : 256 Kbps
Channel count : 2 channels
Sampling rate : 48.0 KHz
Compression mode : Lossy
Delay relative to video : 57ms
Stream size : 120 MiB (2%)
Audio #5106
ID : 5106 (0x13F2)
Menu ID : 10301 (0x283D)
Format : AC-3
Format/Info : Audio Coding 3
Mode extension : CM (complete main)
Format settings, Endianness : Big
Codec ID : 6
Duration : 1h 5mn
Bit rate mode : Constant
Bit rate : 448 Kbps
Channel count : 2 channels
Channel positions : Front: L R
Sampling rate : 48.0 KHz
Bit depth : 16 bits
Compression mode : Lossy
Delay relative to video : 83ms
Stream size : 211 MiB (4%)
Language : German
Text #5105
ID : 5105 (0x13F1)
Menu ID : 10301 (0x283D)
Format : DVB Subtitle
Codec ID : 6
Duration : 1h 5mn
Delay relative to video : 21s 320ms
Language : German

H:РаздачиDTM 2014. Этап 01. HockenheimГонка (Спорт 1 HD).ts
General #6
ID : 6 (0x6)
Complete name : H:РаздачиDTM 2014. Этап 01. HockenheimГонка (Спорт 1 HD).ts
Format : MPEG-TS
File size : 8.01 GiB
Duration : 1h 24mn
Overall bit rate mode : Variable
Overall bit rate : 13.6 Mbps
Video #303
ID : 303 (0x12F)
Menu ID : 20103 (0x4E87)
Format : AVC
Format/Info : Advanced Video Codec
Format profile : High@L4.0
Format settings, CABAC : Yes
Format settings, ReFrames : 3 frames
Codec ID : 27
Duration : 1h 24mn
Bit rate : 12.8 Mbps
Width : 1 920 pixels
Height : 1 080 pixels
Display aspect ratio : 16:9
Frame rate : 25.000 fps
Standard : Component
Color space : YUV
Chroma subsampling : 4:2:0
Bit depth : 8 bits
Scan type : Interlaced
Scan order : Top Field First
Bits/(Pixel*Frame) : 0.246
Stream size : 7.50 GiB (94%)
Color primaries : BT.709
Transfer characteristics : BT.709
Matrix coefficients : BT.709
Audio #403
ID : 403 (0x193)
Menu ID : 20103 (0x4E87)
Format : MPEG Audio
Format version : Version 1
Format profile : Layer 2
Codec ID : 4
Duration : 1h 24mn
Bit rate mode : Constant
Bit rate : 192 Kbps
Channel count : 2 channels
Sampling rate : 48.0 KHz
Compression mode : Lossy
Delay relative to video : 36ms
Stream size : 116 MiB (1%)
Language : Russian
Квалификация (Das Erste HD) - 01:05:47
Гонка (Das Erste HD) - 01:41:49
Гонка (Спорт 1 HD) - 01:24:07




   Похожие торренты   Торрент   Размер 
В этой теме нет новых непрочитанных сообщений. Автоспорт. DTM. 2014. Round 1. Hockenheim. Квалификация. Гонка [03-04.05] (2014) HDTVRip 720p | 50 fps

4 | 6

8.24 ГБ

В этой теме нет новых непрочитанных сообщений. Автоспорт. DTM. 2014. Round 1. Hockenheim. Гонка [04.05] (2014) HDTVRip

3 | 3

865.34 МБ

В этой теме нет новых непрочитанных сообщений. Автоспорт. DTM. 2014. Round 1-2. Квалификация. Гонка (2014) HDTVRip 720p | 50 fps

0 | 32

16.09 ГБ

В этой теме нет новых непрочитанных сообщений. Автоспорт. DTM. 2014. Round 1-5. Квалификация. Гонка (2014) HDTVRip 720p | 50 fps

2 | 43

39.7 ГБ

В этой теме нет новых непрочитанных сообщений. Автоспорт. WTCC. Round 02 . Marrakech (Morocco). Гонка 02 (2013) DVB-S2 Remux

0 | 2

5.11 ГБ

В этой теме нет новых непрочитанных сообщений. Автоспорт. GP2 2013. Этап 03 из 11. Гран-при Испания. Квалификация, Гонка 1, Гонка 2 [Спорт 1] (2013) DVB-S2 Remux

0 | 1

15 ГБ

В этой теме нет новых непрочитанных сообщений. Автоспорт. GP2 2013. Этап 04 из 11. Гран-при Монако. Квалификация, Гонка 1, Гонка 2 [Спорт 1] (2013) DVB-S2 Remux

0 | 1

17.11 ГБ




Вы не можете начинать темы
Вы не можете отвечать на сообщения
Вы не можете редактировать свои сообщения
Вы не можете удалять свои сообщения
Вы не можете добавлять вложения

Перейти:  
Для Мосгорсуда, Роскомнадзора и рекламодателей: mosgorsud-torrent[собачка]yandex.ru
 Вход
ppkBB3cker v.2 © 2008-2014 @ PPK
[ Time : 0.018s | 15 Queries | GZIP : Off ]

Торрент трекер RUTOR.IN, Не можете зайти на rutor.org? Какой новый адрес рутор? Какое зеркало рутор? Не работает rutor.org и зеркала? Тогда наш торрент специально для вас. Rutor.in неофициальное зеркало rutor. В случае если у Вас заблокирован rutor или вдруг Вы не можете на него зайти, то Вы без труда сможете скачать бесплатно и без рекламы последние новинки кино, игр, сериалов и прочего у нас, на Rutor.in. Не нужно использовать прокси, чтобы зайти на рутор, достаточно воспользоваться нашим ресурсом. Все новые фильмы, игры, сериалы, книги и музыка за 2013 и 2014 годы через торрент бесплатно. Скачивайте фильмы в хорошем качестве, игры для пк, xbox, playstation без регистрации. У нас вы найдете новые Зарубежные сериалы и Русские сериалы 2013, 2014, 2015 годов. Оставайтесь с нами, качайте любимые фильмы, игры, сериалы, книги и музыку.