img image001 image001 image001 image001 image001 image001 image001 image001 image001 image001 image001 image001 image001 image001 image001

Planets Sun Sun Sun
Статистика раздачи
Автор: Nickolas3434 | Размер: 6.29 ГБ | Добавлен: 25 май 2014
Раздают: 51    Качают: 10
Скачать торрент
Скачать торрент
Описание торрента

СообщениеДобавлено: 25 май 2014 

Название: Искусство полёта
Оригинальное название: The Art of Flight
Год выхода: 2011
Жанр: Документальный, сноубординг, экстрим, спорт
Режиссер: Курт Морган

О фильме: Фильм об экстремальном спорте и сноубординге. Группа сноубордистов во главе с Трэвисом Райсом воплощает свои самые смелые мечты в реальность, отправляется в глобальные приключения и поднимает сноубординг на новые, невообразимые уровни.



Бонус:
• Behind the Scenes
• Deleted Scenes
• Music Videos

Страна: США
Студия: Brain Farm Digital Cinema
Продолжительность: 01:20:37
Перевод: Авторский - В. Дворцов
Субтитры: Русские, английские

Кодек: MPEG-4 AVC
Качество: BDRip (720p)
Видео: 1280x720, 5609 Кбит/с, 23,976 fps
Звук: Русский (AC3, 2 ch, 320 Кбит/с)
Английский (AC3, 6 ch, 448 Кбит/с)

Семпл

General
Unique ID : 210579779178249929525891258325987106112 (0x9E6C30B394AA1456B55C843E87461D40)
Complete name : F:мои рипыThe.art.of.flight.2011.x264.BDRip.(720p)The.art.of.flight.2011.x264.BDRip.(720p).mkv
Format : Matroska
Format version : Version 4 / Version 2
File size : 3.59 GiB
Duration : 1h 20mn
Overall bit rate : 6 372 Kbps
Movie name : The art of flight / 2011 / Rip by PowerRock
Encoded date : UTC 2014-04-30 13:23:41
Writing application : mkvmerge v6.7.0 ('Back to the Ground') 32bit built on Jan 8 2014 15:03:17
Writing library : libebml v1.3.0 + libmatroska v1.4.1

Video
ID : 1
Format : AVC
Format/Info : Advanced Video Codec
Format profile : High@L4.1
Format settings, CABAC : Yes
Format settings, ReFrames : 8 frames
Codec ID : V_MPEG4/ISO/AVC
Duration : 1h 20mn
Bit rate : 5 609 Kbps
Width : 1 280 pixels
Height : 720 pixels
Display aspect ratio : 16:9
Frame rate mode : Constant
Frame rate : 23.976 fps
Color space : YUV
Chroma subsampling : 4:2:0
Bit depth : 8 bits
Scan type : Progressive
Bits/(Pixel*Frame) : 0.254
Stream size : 3.08 GiB (86%)
Title : The art of flight / 2011
Writing library : x264 core 125 r2200 999b753
Encoding settings : cabac=1 / ref=8 / deblock=1:-3:-2 / analyse=0x3:0x133 / me=umh / subme=10 / psy=1 / psy_rd=1.00:0.10 / mixed_ref=1 / me_range=32 / chroma_me=1 / trellis=2 / 8x8dct=1 / cqm=0 / deadzone=21,11 / fast_pskip=0 / chroma_qp_offset=-3 / threads=6 / lookahead_threads=1 / sliced_threads=0 / nr=0 / decimate=1 / interlaced=0 / bluray_compat=0 / constrained_intra=0 / bframes=9 / b_pyramid=2 / b_adapt=2 / b_bias=0 / direct=3 / weightb=1 / open_gop=0 / weightp=2 / keyint=250 / keyint_min=23 / scenecut=40 / intra_refresh=0 / rc_lookahead=50 / rc=2pass / mbtree=1 / bitrate=5609 / ratetol=1.0 / qcomp=0.60 / qpmin=10 / qpmax=51 / qpstep=4 / cplxblur=20.0 / qblur=0.5 / ip_ratio=1.40 / aq=1:1.00
Default : Yes
Forced : No

Audio #1
ID : 2
Format : AC-3
Format/Info : Audio Coding 3
Mode extension : CM (complete main)
Format settings, Endianness : Big
Codec ID : A_AC3
Duration : 1h 20mn
Bit rate mode : Constant
Bit rate : 320 Kbps
Channel(s) : 2 channels
Channel positions : Front: L R
Sampling rate : 48.0 KHz
Bit depth : 16 bits
Compression mode : Lossy
Stream size : 185 MiB (5%)
Language : Russian
Default : Yes
Forced : No

Audio #2
ID : 3
Format : AC-3
Format/Info : Audio Coding 3
Mode extension : CM (complete main)
Format settings, Endianness : Big
Codec ID : A_AC3
Duration : 1h 20mn
Bit rate mode : Constant
Bit rate : 448 Kbps
Channel(s) : 6 channels
Channel positions : Front: L C R, Side: L R, LFE
Sampling rate : 48.0 KHz
Bit depth : 16 bits
Compression mode : Lossy
Stream size : 258 MiB (7%)
Language : English
Default : No
Forced : No

Text #1
ID : 4
Format : UTF-8
Codec ID : S_TEXT/UTF8
Codec ID/Info : UTF-8 Plain Text
Language : Russian
Default : Yes
Forced : No

Text #2
ID : 5
Format : UTF-8
Codec ID : S_TEXT/UTF8
Codec ID/Info : UTF-8 Plain Text
Language : English
Default : No
Forced : No

Menu
00:00:00.000 : :Chapter 01
00:04:50.373 : :Chapter 02
00:11:23.766 : :Chapter 03
00:14:12.434 : :Chapter 04
00:20:31.772 : :Chapter 05
00:26:23.331 : :Chapter 06
00:33:44.731 : :Chapter 07
00:45:57.963 : :Chapter 08
00:54:04.991 : :Chapter 09
00:58:54.489 : :Chapter 10
01:05:37.892 : :Chapter 11
01:12:59.833 : :Chapter 12
01:14:40.058 : :Chapter 13







   Похожие торренты   Торрент   Размер 
В этой теме нет новых непрочитанных сообщений. Искусство полета / The Art of Flight (2011) BDRip 1080p

250 | 7

5.76 ГБ

В этой теме нет новых непрочитанных сообщений. Искусство полета / The Art of Flight (2011) BDRip 1080p | 3D-Video | L1

90 | 10

9.97 ГБ

В этой теме нет новых непрочитанных сообщений. Искусство полета / The Art of Flight (2011) HDRip | L1

2 | 2

706.96 МБ

В этой теме нет новых непрочитанных сообщений. Сноубординг. Искусство Полёта / Snowboarding. The Art of Flight (2011) Blu Ray

3 | 4

22.18 ГБ

В этой теме нет новых непрочитанных сообщений. Сноубординг. Искусство Полёта / Snowboarding. The Art of Flight (2011) HDRip

64 | 7

1.46 ГБ

В этой теме нет новых непрочитанных сообщений. Сноубординг. Искусство Полёта / Snowboarding. The Art of Flight (2011) BRRip 720р

25 | 2

2.68 ГБ

В этой теме нет новых непрочитанных сообщений. Теория полета / The Theory of Flight (1998) DVDRip-AVC | Санаев

35 | 11

1.45 ГБ




Вы не можете начинать темы
Вы не можете отвечать на сообщения
Вы не можете редактировать свои сообщения
Вы не можете удалять свои сообщения
Вы не можете добавлять вложения

Перейти:  
Для Мосгорсуда, Роскомнадзора и рекламодателей: mosgorsud-torrent[собачка]yandex.ru
 Вход
ppkBB3cker v.2 © 2008-2014 @ PPK
[ Time : 0.097s | 15 Queries | GZIP : Off ]

Торрент трекер RUTOR.IN, Не можете зайти на rutor.org? Какой новый адрес рутор? Какое зеркало рутор? Не работает rutor.org и зеркала? Тогда наш торрент специально для вас. Rutor.in неофициальное зеркало rutor. В случае если у Вас заблокирован rutor или вдруг Вы не можете на него зайти, то Вы без труда сможете скачать бесплатно и без рекламы последние новинки кино, игр, сериалов и прочего у нас, на Rutor.in. Не нужно использовать прокси, чтобы зайти на рутор, достаточно воспользоваться нашим ресурсом. Все новые фильмы, игры, сериалы, книги и музыка за 2013 и 2014 годы через торрент бесплатно. Скачивайте фильмы в хорошем качестве, игры для пк, xbox, playstation без регистрации. У нас вы найдете новые Зарубежные сериалы и Русские сериалы 2013, 2014, 2015 годов. Оставайтесь с нами, качайте любимые фильмы, игры, сериалы, книги и музыку.