img image001 image001 image001 image001 image001 image001 image001 image001 image001 image001 image001 image001 image001 image001 image001

Planets Sun Sun Sun
Статистика раздачи
Автор: Nickolas3434 | Размер: 5.28 ГБ | Добавлен: 11 июн 2014
Раздают: 11    Качают: 2
Скачать торрент
Скачать торрент
Описание торрента

СообщениеДобавлено: 11 июн 2014 

Чемпионат мира по футболу 2014. Дорога в Бразилию / Road to Brazil. Выпуски 1-16


Год выпуска: 2014
Комментарий: Профессиональный
Язык комментариев: Русский

Описание: Программа FIFA, предваряющая предстоящий мировой чемпионат по футболу 2014 в Бразилии. Мы познакомимся с каждой из 32-х стран-участниц.


Автор рипа: sanchez2011

Качество: SATRip
Формат: AVI
Видео кодек: XviD
Аудио кодек: MP3
Видео: MPEG-4 Visual (H263) 704x448 (16:10) 25.00fps 1700kbps *
Аудио: MPEG Audio Layer 3 48000Hz stereo 128kbps



General
Complete name : E:TorrentЧемпионат мира по футболу. Дорога в БразилиюДорога в Бразилию. Выпуск 1. Бразилия и Япония.avi
Format : AVI
Format/Info : Audio Video Interleave
File size : 346 MiB
Duration : 26mn 26s
Overall bit rate : 1 831 Kbps
Writing application : VirtualDubMod 1.5.10.2 (build 2540/release)
Writing library : VirtualDubMod build 2540/release

Video
ID : 0
Format : MPEG-4 Visual
Format profile : Advanced Simple@L5
Format settings, BVOP : 2
Format settings, QPel : No
Format settings, GMC : No warppoints
Format settings, Matrix : Default (H.263)
Codec ID : XVID
Codec ID/Hint : XviD
Duration : 26mn 26s
Bit rate : 1 693 Kbps
Width : 704 pixels
Height : 448 pixels
Display aspect ratio : 16:10
Frame rate : 25.000 fps
Color space : YUV
Chroma subsampling : 4:2:0
Bit depth : 8 bits
Scan type : Progressive
Compression mode : Lossy
Bits/(Pixel*Frame) : 0.215
Stream size : 320 MiB (92%)
Writing library : XviD 64

Audio
ID : 1
Format : MPEG Audio
Format version : Version 1
Format profile : Layer 3
Mode : Joint stereo
Mode extension : MS Stereo
Codec ID : 55
Codec ID/Hint : MP3
Duration : 26mn 26s
Bit rate mode : Constant
Bit rate : 128 Kbps
Channel(s) : 2 channels
Sampling rate : 48.0 KHz
Compression mode : Lossy
Stream size : 24.2 MiB (7%)
Alignment : Aligned on interleaves
Interleave, duration : 40 ms (1.00 video frame)
Interleave, preload duration : 504 ms
Writing library : LAME3.100Є
Выпуск 1. Бразилия и Япония
Продолжительность: 00:26:26
Выпуск 2. Германия и Алжир
Продолжительность: 00:26:16
Выпуск 3. Нидерланды и Коста-Рика
Продолжительность: 00:25:58
Выпуск 4. США и Нигерия
Продолжительность: 00:26:14
Выпуск 5. Бельгия и Гондурас
Продолжительность: 00:26:24
Выпуск 6. Россия и Иран
Продолжительность: 00:26:27
Выпуск 7. Аргентина и Кот-д'Ивуар
Продолжительность: 00:26:16
Выпуск 8. Италия и Камерун
Продолжительность: 00:26:01
Выпуск 9. Уругвай и Босния и Герцеговина
Продолжительность: 00:25:57
Выпуск 10. Франция и Чили
Продолжительность: 00:26:16
Выпуск 11. Португалия и Швейцария
Продолжительность: 00:25:59
Выпуск 12. Колумбия и Хорватия
Продолжительность: 00:26:17
Выпуск 13. Австралия и Эквадор
Продолжительность: 00:25:53
Выпуск 14. Мексика и Греция
Продолжительность: 00:25:44
Выпуск 15. Англия и Гана
Продолжительность: 00:26:08
Выпуск 16. Южная Корея и Испания
Продолжительность: 00:25:59



   Похожие торренты   Торрент   Размер 
В этой теме нет новых непрочитанных сообщений. Футбол. Дорога в Бразилию / The Road to Brazil. НТВ+ [Выпуски 01-20] (2014) SATRip

35 | 31

5.34 ГБ

В этой теме нет новых непрочитанных сообщений. Футбол. Дорога в Бразилию / The Road to Brazil. НТВ+ [Выпуски 01-30] (2014) SATRip

2 | 4

8.03 ГБ

В этой теме нет новых непрочитанных сообщений. Футбол. Дорога в Бразилию / The Road to Brazil. НТВ+ [Выпуски 01-25] (2014) SATRip

4 | 11

6.69 ГБ

В этой теме нет новых непрочитанных сообщений. Футбол. Дорога в Бразилию / The Road to Brazil. НТВ+ [Выпуски 01-22] (2014) SATRip

46 | 35

5.88 ГБ

В этой теме нет новых непрочитанных сообщений. Футбол. Чемпионат Мира 2014. Дневник. Выпуски 1-18. Россия 1, Россия HD (2014) SATRip, HDTVRip

10 | 7

5.77 ГБ

В этой теме нет новых непрочитанных сообщений. Футбол. Чемпионат Мира 2014. Дневник. Выпуски 1-15. Россия 1, Россия HD (2014) SATRip, HDTVRip

2 | 52

4.8 ГБ

В этой теме нет новых непрочитанных сообщений. Футбол. Чемпионат Мира 2014. Дневник. Выпуски 1-12. Россия 1, Россия HD (2014) SATRip, HDTVRip

9 | 27

3.82 ГБ




Вы не можете начинать темы
Вы не можете отвечать на сообщения
Вы не можете редактировать свои сообщения
Вы не можете удалять свои сообщения
Вы не можете добавлять вложения

Перейти:  
Для Мосгорсуда, Роскомнадзора и рекламодателей: mosgorsud-torrent[собачка]yandex.ru
 Вход
ppkBB3cker v.2 © 2008-2014 @ PPK
[ Time : 0.037s | 16 Queries | GZIP : Off ]

Торрент трекер RUTOR.IN, Не можете зайти на rutor.org? Какой новый адрес рутор? Какое зеркало рутор? Не работает rutor.org и зеркала? Тогда наш торрент специально для вас. Rutor.in неофициальное зеркало rutor. В случае если у Вас заблокирован rutor или вдруг Вы не можете на него зайти, то Вы без труда сможете скачать бесплатно и без рекламы последние новинки кино, игр, сериалов и прочего у нас, на Rutor.in. Не нужно использовать прокси, чтобы зайти на рутор, достаточно воспользоваться нашим ресурсом. Все новые фильмы, игры, сериалы, книги и музыка за 2013 и 2014 годы через торрент бесплатно. Скачивайте фильмы в хорошем качестве, игры для пк, xbox, playstation без регистрации. У нас вы найдете новые Зарубежные сериалы и Русские сериалы 2013, 2014, 2015 годов. Оставайтесь с нами, качайте любимые фильмы, игры, сериалы, книги и музыку.
cron