img image001 image001 image001 image001 image001 image001 image001 image001 image001 image001 image001 image001 image001 image001 image001

Planets Sun Sun Sun
Статистика раздачи
Автор: Nickolas3434 | Размер: 12.19 ГБ | Добавлен: 11 июн 2014
Раздают: 2    Качают: 4
Скачать торрент
Скачать торрент
Описание торрента

СообщениеДобавлено: 11 июн 2014 

World Touring Car Championship (WTCC) 2014 / Этап 06 / Moscow / Квалификация, Гонка 1,2 / Eurosport HD



Вид спорта: Автогонки
Дата/Год выпуска: 08.06.14
Язык комментариев: русский (Оксана Косаченко), английский

Автор записи: SashaR.

Качество: DVB-S2 Remux
Формат видео: TS
Видео: AVC, 1920x1080, 16:9, 8 888 Kbps, 25 fps
Аудио: MP2, 192 Kbps, 48.0 kHz, 2 channels
J:РаздачиWTCC-2014. Этап 06. MoscowRace 1.ts
General #6
ID : 6 (0x6)
Complete name : J:РаздачиWTCC-2014. Этап 06. MoscowRace 1.ts
Format : MPEG-TS
File size : 3.65 GiB
Duration : 53mn 32s
Overall bit rate mode : Variable
Overall bit rate : 9 758 Kbps
Video #324
ID : 324 (0x144)
Menu ID : 12104 (0x2F48)
Format : AVC
Format/Info : Advanced Video Codec
Format profile : High@L4.0
Format settings, CABAC : Yes
Format settings, ReFrames : 3 frames
Codec ID : 27
Duration : 53mn 31s
Bit rate : 8 888 Kbps
Width : 1 920 pixels
Height : 1 080 pixels
Display aspect ratio : 16:9
Frame rate : 25.000 fps
Standard : Component
Color space : YUV
Chroma subsampling : 4:2:0
Bit depth : 8 bits
Scan type : Interlaced
Scan order : Top Field First
Bits/(Pixel*Frame) : 0.171
Stream size : 3.32 GiB (91%)
Color primaries : BT.709
Transfer characteristics : BT.709
Matrix coefficients : BT.709
Audio #404
ID : 404 (0x194)
Menu ID : 12104 (0x2F48)
Format : MPEG Audio
Format version : Version 1
Format profile : Layer 2
Codec ID : 4
Duration : 53mn 32s
Bit rate mode : Constant
Bit rate : 192 Kbps
Channel count : 2 channels
Sampling rate : 48.0 KHz
Compression mode : Lossy
Delay relative to video : 213ms
Stream size : 73.5 MiB (2%)
Language : Russian
Language, more info : Clean effects
Audio #424
ID : 424 (0x1A8)
Menu ID : 12104 (0x2F48)
Format : MPEG Audio
Format version : Version 1
Format profile : Layer 2
Codec ID : 4
Duration : 53mn 32s
Bit rate mode : Constant
Bit rate : 192 Kbps
Channel count : 2 channels
Sampling rate : 48.0 KHz
Compression mode : Lossy
Delay relative to video : 213ms
Stream size : 73.5 MiB (2%)
Language : English
Language, more info : Clean effects
Квалификация - 00:57:06
Гонка 1 - 00:53:32
Гонка 2 - 00:59:38



   Похожие торренты   Торрент   Размер 
В этой теме нет новых непрочитанных сообщений. Автоспорт. World Touring Car Championship (WTCC) 2014. Этап 05. Salzburg. Гонки 1 и 2 (2014) DVB-S2 Remux

0 | 2

5.86 ГБ

В этой теме нет новых непрочитанных сообщений. Автоспорт. World Touring Car Championship (WTCC). Этап 06. Moscow Raceway (2013) IPTV 1080i

0 | 2

5.96 ГБ

В этой теме нет новых непрочитанных сообщений. Автоспорт. World Touring Car Championship (WTCC). Этап 8. Аргентина. Разминка, Гонка 1, Гонка 2 (2013) DVB-S2 Remux

1 | 2

8.15 ГБ

В этой теме нет новых непрочитанных сообщений. Автоспорт. World Touring Car Championship (WTCC). Этап 9. Sonoma. Квалификация, Разминка, Гонка 1-2 (2013) IPTV

0 | 2

5.47 ГБ

В этой теме нет новых непрочитанных сообщений. Автоспорт. World Touring Car Championship (WTCC) 2014. Этапы 01-06 (2014) IPTVRip

3 | 8

11.79 ГБ

В этой теме нет новых непрочитанных сообщений. Автоспорт. World Touring Car Championship (WTCC) 2014. Этапы 01-06 (2014) IPTVRip

0 | 10

11.49 ГБ

В этой теме нет новых непрочитанных сообщений. Автоспорт. World Touring Car Championship (WTCC) 2014. Этапы 01-05 (2014) IPTVRip

6 | 4

9.15 ГБ




Вы не можете начинать темы
Вы не можете отвечать на сообщения
Вы не можете редактировать свои сообщения
Вы не можете удалять свои сообщения
Вы не можете добавлять вложения

Перейти:  
Для Мосгорсуда, Роскомнадзора и рекламодателей: mosgorsud-torrent[собачка]yandex.ru
 Вход
ppkBB3cker v.2 © 2008-2014 @ PPK
[ Time : 0.054s | 16 Queries | GZIP : Off ]

Торрент трекер RUTOR.IN, Не можете зайти на rutor.org? Какой новый адрес рутор? Какое зеркало рутор? Не работает rutor.org и зеркала? Тогда наш торрент специально для вас. Rutor.in неофициальное зеркало rutor. В случае если у Вас заблокирован rutor или вдруг Вы не можете на него зайти, то Вы без труда сможете скачать бесплатно и без рекламы последние новинки кино, игр, сериалов и прочего у нас, на Rutor.in. Не нужно использовать прокси, чтобы зайти на рутор, достаточно воспользоваться нашим ресурсом. Все новые фильмы, игры, сериалы, книги и музыка за 2013 и 2014 годы через торрент бесплатно. Скачивайте фильмы в хорошем качестве, игры для пк, xbox, playstation без регистрации. У нас вы найдете новые Зарубежные сериалы и Русские сериалы 2013, 2014, 2015 годов. Оставайтесь с нами, качайте любимые фильмы, игры, сериалы, книги и музыку.
cron