img image001 image001 image001 image001 image001 image001 image001 image001 image001 image001 image001 image001 image001 image001 image001

Planets Sun Sun Sun
Статистика раздачи
Автор: Nickolas3434 | Размер: 1.31 ГБ | Добавлен: 12 июн 2014
Раздают: 114    Качают: 53
Скачать торрент
Скачать торрент
Описание торрента

СообщениеДобавлено: 12 июн 2014 

WRC. 2014. 6/13. Италия. Обзор. Автоплюс


Вид спорта: Ралли
Дата/Год выпуска: 08.06.14
Язык комментариев: русский

Автор записи: SashaR.

Качество: DVB Remux
Формат видео: TS
Видео: AVC, 720x576, 16:9, 3 251 Kbps, 25 fps
Аудио: MP2, 192 Kbps, 48.0 kHz, 2 channels
H:РаздачиWRC. 2014. Этап 06. Италия. Обзор (Автоплюс).ts
General #6
ID : 6 (0x6)
Complete name : H:РаздачиWRC. 2014. Этап 06. Италия. Обзор (Автоплюс).ts
Format : MPEG-TS
File size : 1.31 GiB
Duration : 51mn 48s
Overall bit rate mode : Variable
Overall bit rate : 3 624 Kbps
Video #332
ID : 332 (0x14C)
Menu ID : 10212 (0x27E4)
Format : MPEG Video
Format version : Version 2
Format profile : Main@Main
Format settings, BVOP : Yes
Format settings, Matrix : Custom
Format settings, GOP : Variable
Codec ID : 2
Duration : 51mn 48s
Bit rate mode : Variable
Bit rate : 3 251 Kbps
Maximum bit rate : 15.0 Mbps
Width : 720 pixels
Height : 576 pixels
Display aspect ratio : 4:3
Frame rate : 25.000 fps
Standard : PAL
Color space : YUV
Chroma subsampling : 4:2:0
Bit depth : 8 bits
Scan type : Interlaced
Scan order : Top Field First
Compression mode : Lossy
Bits/(Pixel*Frame) : 0.314
Stream size : 1.18 GiB (90%)
Audio #422
ID : 422 (0x1A6)
Menu ID : 10212 (0x27E4)
Format : MPEG Audio
Format version : Version 1
Format profile : Layer 2
Codec ID : 4
Duration : 51mn 48s
Bit rate mode : Constant
Bit rate : 192 Kbps
Channel count : 2 channels
Sampling rate : 48.0 KHz
Compression mode : Lossy
Delay relative to video : 51ms
Stream size : 71.1 MiB (5%)
Language : Russian
Language, more info : Clean effects
00:51:48



   Похожие торренты   Торрент   Размер 
В этой теме нет новых непрочитанных сообщений. Автоспорт. WRC. 2014. 6/13. Италия. Обзор (2014) HDTVRip-AVC 720p | 50fps

11 | 47

10.13 ГБ

В этой теме нет новых непрочитанных сообщений. Автоспорт. WRC. 2013. 7/13. Италия. Обзор (2013) HDTVRip 720p

0 | 2

2.73 ГБ

В этой теме нет новых непрочитанных сообщений. Автоспорт. World Touring Car Championship (WTCC) 2017. Этап 02. Италия. Обзор (2017) HDTVRip-AVC 720p | 50fps

0 | 0

7.97 ГБ

В этой теме нет новых непрочитанных сообщений. Автоспорт. WRC. 2014. 1/13. Монте Карло. Обзор (2014) HDTVRip-AVC 720p | 50fps

0 | 2

8.74 ГБ

В этой теме нет новых непрочитанных сообщений. Автоспорт. WRC. 2014. 5/13. Аргентина. Обзор (2014) HDTVRip-AVC 720p | 50fps

0 | 2

7.94 ГБ

В этой теме нет новых непрочитанных сообщений. Автоспорт. WRC. 2014. 2/13. Швеция. Обзор (2014) HDTVRip-AVC 720p | 50fps

0 | 18

13.34 ГБ

В этой теме нет новых непрочитанных сообщений. Автоспорт. WRC. 2014. 3/13. Мексика. Обзор (2014) HDTVRip-AVC 720p | 50fps

8 | 29

12.72 ГБ




Вы не можете начинать темы
Вы не можете отвечать на сообщения
Вы не можете редактировать свои сообщения
Вы не можете удалять свои сообщения
Вы не можете добавлять вложения

Перейти:  
Для Мосгорсуда, Роскомнадзора и рекламодателей: mosgorsud-torrent[собачка]yandex.ru
 Вход
ppkBB3cker v.2 © 2008-2014 @ PPK
[ Time : 0.035s | 15 Queries | GZIP : Off ]

Торрент трекер RUTOR.IN, Не можете зайти на rutor.org? Какой новый адрес рутор? Какое зеркало рутор? Не работает rutor.org и зеркала? Тогда наш торрент специально для вас. Rutor.in неофициальное зеркало rutor. В случае если у Вас заблокирован rutor или вдруг Вы не можете на него зайти, то Вы без труда сможете скачать бесплатно и без рекламы последние новинки кино, игр, сериалов и прочего у нас, на Rutor.in. Не нужно использовать прокси, чтобы зайти на рутор, достаточно воспользоваться нашим ресурсом. Все новые фильмы, игры, сериалы, книги и музыка за 2013 и 2014 годы через торрент бесплатно. Скачивайте фильмы в хорошем качестве, игры для пк, xbox, playstation без регистрации. У нас вы найдете новые Зарубежные сериалы и Русские сериалы 2013, 2014, 2015 годов. Оставайтесь с нами, качайте любимые фильмы, игры, сериалы, книги и музыку.