img image001 image001 image001 image001 image001 image001 image001 image001 image001 image001 image001 image001 image001 image001 image001

Planets Sun Sun Sun
Статистика раздачи
Автор: Nickolas3434 | Размер: 11.11 ГБ | Добавлен: 11 июн 2014
Раздают: 2    Качают: 6
Скачать торрент
Скачать торрент
Описание торрента

СообщениеДобавлено: 11 июн 2014 

WSBK 2014 / Round06 / Sepang (Malaysia) / Eurosport HD


Вид спорта: Мотогонки
Дата/Год выпуска: 08.06.14
Язык комментариев: русский

Автор записи: SashaR.

Качество: DVB-S2 Remux
Формат видео: TS
Видео: AVC, 1920x1080 (16:9), 9 736 Kbps, 25 fps
Аудио: MP2, 192 Kbps, 48.0 kHz, 2 channels

Дополнительная информация: Квалификация записана в SD качестве
J:РаздачиWSBK-2014. Сепанг (Малайзия)Суперспорт.ts
General #6
ID : 6 (0x6)
Complete name : J:РаздачиWSBK-2014. Сепанг (Малайзия)Суперспорт.ts
Format : MPEG-TS
File size : 3.99 GiB
Duration : 53mn 40s
Overall bit rate mode : Variable
Overall bit rate : 10.7 Mbps
Video #324
ID : 324 (0x144)
Menu ID : 12104 (0x2F48)
Format : AVC
Format/Info : Advanced Video Codec
Format profile : High@L4.0
Format settings, CABAC : Yes
Format settings, ReFrames : 3 frames
Format settings, GOP : M=4, N=28
Codec ID : 27
Duration : 53mn 39s
Bit rate : 9 736 Kbps
Width : 1 920 pixels
Height : 1 080 pixels
Display aspect ratio : 16:9
Frame rate : 25.000 fps
Standard : Component
Color space : YUV
Chroma subsampling : 4:2:0
Bit depth : 8 bits
Scan type : Interlaced
Scan order : Top Field First
Bits/(Pixel*Frame) : 0.188
Stream size : 3.65 GiB (91%)
Color primaries : BT.709
Transfer characteristics : BT.709
Matrix coefficients : BT.709
Audio #404
ID : 404 (0x194)
Menu ID : 12104 (0x2F48)
Format : MPEG Audio
Format version : Version 1
Format profile : Layer 2
Codec ID : 4
Duration : 53mn 40s
Bit rate mode : Constant
Bit rate : 192 Kbps
Channel count : 2 channels
Sampling rate : 48.0 KHz
Compression mode : Lossy
Delay relative to video : 78ms
Stream size : 73.7 MiB (2%)
Language : Russian
Language, more info : Clean effects
Audio #424
ID : 424 (0x1A8)
Menu ID : 12104 (0x2F48)
Format : MPEG Audio
Format version : Version 1
Format profile : Layer 2
Codec ID : 4
Duration : 53mn 40s
Bit rate mode : Constant
Bit rate : 192 Kbps
Channel count : 2 channels
Sampling rate : 48.0 KHz
Compression mode : Lossy
Delay relative to video : 78ms
Stream size : 73.7 MiB (2%)
Language : English
Language, more info : Clean effects
Гонка 1 - 00:55:14
Гонка 2 - 00:28:10
Квалификация - 00:36:42
СуперСпорт - 00:53:38



   Похожие торренты   Торрент   Размер 
В этой теме нет новых непрочитанных сообщений. Мотоспорт. WSBK. 2014. 1/14. Phillip Island. Гонка 1-2, Supersport (Eurosport 2 HD) (1014) DVB-S2 Remux

0 | 3

9.76 ГБ

В этой теме нет новых непрочитанных сообщений. Мотоспорт. WSBK 2014. Mazda Raceway Laguna Seca, USA [Eurosport] [13.07] (2014) SATRip

3 | 3

2.16 ГБ

В этой теме нет новых непрочитанных сообщений. Мотоспорт. WSBK Superbike 2015. 10/13. Малайзия, Sepang (Superpole/Race1/Supersport/Race2) [02.08] (2015) HDTV 1080i

1 | 4

16.13 ГБ

В этой теме нет новых непрочитанных сообщений. Мотоспорт. WSBK Superbike 2015. 10/13. Малайзия, Sepang (Superpole/Race1/Supersport/Race2) [02.08] (2015) HDTVRip-AVC 720p | 50fps

3 | 6

5.96 ГБ

В этой теме нет новых непрочитанных сообщений. Мотоспорт. World Superbike (WSBK). 2013. 1/15. Phillip Island. Гонка [Eurosport HD, Feed] (2013) HDTVRip-AVC 720p

0 | 2

10.25 ГБ

В этой теме нет новых непрочитанных сообщений. Мотоспорт. WSBK 2014. Round 05. Donington Park (2014) SATRip

10 | 3

2.76 ГБ

В этой теме нет новых непрочитанных сообщений. Мотоспорт. World Superbike 2014. WSBK. Всемирный супербайк. 01 Phillip Isl. (2014) SATRip

7 | 3

2.6 ГБ




Вы не можете начинать темы
Вы не можете отвечать на сообщения
Вы не можете редактировать свои сообщения
Вы не можете удалять свои сообщения
Вы не можете добавлять вложения

Перейти:  
Для Мосгорсуда, Роскомнадзора и рекламодателей: mosgorsud-torrent[собачка]yandex.ru
 Вход
ppkBB3cker v.2 © 2008-2014 @ PPK
[ Time : 0.043s | 18 Queries | GZIP : Off ]

cron