img image001 image001 image001 image001 image001 image001 image001 image001 image001 image001 image001 image001 image001 image001 image001

Planets Sun Sun Sun
Статистика раздачи
Автор: Nickolas3434 | Размер: 45.78 ГБ | Добавлен: 11 июн 2014
Раздают: 2    Качают: 23
Скачать торрент
Скачать торрент
Описание торрента

СообщениеДобавлено: 11 июн 2014 

Формула 1. Сезон 2014. Этап 07. Канада. 1-я, 2-я, 3-я практика, Квалификация, Гонка. Спорт 1 HD


Вид спорта: Формула 1
Дата/Год выпуска: 06.06.14
Язык комментариев: русский
1-я практика - Руслан Гатаулин
2-я практика - Владимир Башмаков
3-я практика - Владимир Башмаков
Квалификация - Наталья Фабричнова, Алексей Попов
Гонка - Наталья Фабричнова, Алексей Попов

Автор записи: SashaR.

Качество: DVB-S2 Remux
Формат видео: TS
Видео: AVC, 1920x1080, 16:9, 12.5 Mbps, 25 fps
Аудио: MP2, 192 Kbps, 48.0 kHz, 2 channels
H:РаздачиФормула 1. Сезон 2014. Этап 7. Гран-при Канады (Спорт 1 HD)1-я практика.ts
General #6
ID : 6 (0x6)
Complete name : H:РаздачиФормула 1. Сезон 2014. Этап 7. Гран-при Канады (Спорт 1 HD)1-я практика.ts
Format : MPEG-TS
File size : 8.68 GiB
Duration : 1h 32mn
Overall bit rate mode : Variable
Overall bit rate : 13.4 Mbps
Video #303
ID : 303 (0x12F)
Menu ID : 20103 (0x4E87)
Format : AVC
Format/Info : Advanced Video Codec
Format profile : High@L4.0
Format settings, CABAC : Yes
Format settings, ReFrames : 3 frames
Codec ID : 27
Duration : 1h 32mn
Bit rate : 12.5 Mbps
Width : 1 920 pixels
Height : 1 080 pixels
Display aspect ratio : 16:9
Frame rate : 25.000 fps
Standard : Component
Color space : YUV
Chroma subsampling : 4:2:0
Bit depth : 8 bits
Scan type : Interlaced
Scan order : Top Field First
Bits/(Pixel*Frame) : 0.242
Stream size : 8.13 GiB (94%)
Color primaries : BT.709
Transfer characteristics : BT.709
Matrix coefficients : BT.709
Audio #403
ID : 403 (0x193)
Menu ID : 20103 (0x4E87)
Format : MPEG Audio
Format version : Version 1
Format profile : Layer 2
Codec ID : 4
Duration : 1h 32mn
Bit rate mode : Constant
Bit rate : 192 Kbps
Channel count : 2 channels
Sampling rate : 48.0 KHz
Compression mode : Lossy
Delay relative to video : -52ms
Stream size : 127 MiB (1%)
Language : Russian
1-я практика - 01:32:47
2-я практика - 01:37:56
3-я практика - 01:08:55
Квалификация - 01:17:14
Гонка - 02:29:39



   Похожие торренты   Торрент   Размер 
В этой теме нет новых непрочитанных сообщений. Формула 1. Гран-при Австралии 2014. 1 этап. 1,3-ая практика, Квалификация, Гонка [Спорт 1 HD] [14.03] (2014) HDTV 1080i

45 | 325

14.44 ГБ

В этой теме нет новых непрочитанных сообщений. Формула 1: Гран-при Канады 7 этап: Квалификация [Спорт 1] (2014) HDTVRip

171 | 9

1.04 ГБ

В этой теме нет новых непрочитанных сообщений. Формула 1: Гран-при Канады 7 этап: Квалификация [Спорт 1] (2014) HDTVRip 720p

0 | 22

2.26 ГБ

В этой теме нет новых непрочитанных сообщений. Формула 1: Гран-при Канады 7 этап: 1-я свободная практика [Спорт 1] (2014) HDTVRip 720p

10 | 2

2.72 ГБ

В этой теме нет новых непрочитанных сообщений. Формула 1: Гран-при Канады 7 этап: 2-я свободная практика [Спорт 1] (2014) HDTVRip 720p

9 | 2

2.87 ГБ

В этой теме нет новых непрочитанных сообщений. Формула 1: Гран-При Канады. Гонка. 7 этап [Спорт 1] (2014) HDTVRip

559 | 39

1.92 ГБ

В этой теме нет новых непрочитанных сообщений. Формула 1: Гран-При Канады. Гонка. 7 этап [Спорт 1] (2014) HDTVRip 720p

273 | 18

4.38 ГБ




Вы не можете начинать темы
Вы не можете отвечать на сообщения
Вы не можете редактировать свои сообщения
Вы не можете удалять свои сообщения
Вы не можете добавлять вложения

Перейти:  
Для Мосгорсуда, Роскомнадзора и рекламодателей: mosgorsud-torrent[собачка]yandex.ru
 Вход
ppkBB3cker v.2 © 2008-2014 @ PPK
[ Time : 0.024s | 15 Queries | GZIP : Off ]

Торрент трекер RUTOR.IN, Не можете зайти на rutor.org? Какой новый адрес рутор? Какое зеркало рутор? Не работает rutor.org и зеркала? Тогда наш торрент специально для вас. Rutor.in неофициальное зеркало rutor. В случае если у Вас заблокирован rutor или вдруг Вы не можете на него зайти, то Вы без труда сможете скачать бесплатно и без рекламы последние новинки кино, игр, сериалов и прочего у нас, на Rutor.in. Не нужно использовать прокси, чтобы зайти на рутор, достаточно воспользоваться нашим ресурсом. Все новые фильмы, игры, сериалы, книги и музыка за 2013 и 2014 годы через торрент бесплатно. Скачивайте фильмы в хорошем качестве, игры для пк, xbox, playstation без регистрации. У нас вы найдете новые Зарубежные сериалы и Русские сериалы 2013, 2014, 2015 годов. Оставайтесь с нами, качайте любимые фильмы, игры, сериалы, книги и музыку.