img image001 image001 image001 image001 image001 image001 image001 image001 image001 image001 image001 image001 image001 image001 image001

Planets Sun Sun Sun
Статистика раздачи
Автор: Nickolas3434 | Размер: 8.62 ГБ | Добавлен: 11 июн 2014
Раздают: 18    Качают: 16
Скачать торрент
Скачать торрент
Описание торрента

СообщениеДобавлено: 11 июн 2014 

UFC 168 Fight Night 42 (Prelims)




Год выпуска: 2014
Вид спорта: MMA
Участники: Бойцы ММА
Продолжительность: 1:34:26
Язык комментариев: Английский
Описание: UFC Fight Night 42 PreLims
BT Sport 1 HD

Автор рипа/записи: lulz

Качество: HDTV 1080i
Формат: TS
Видео: AVC, 1920x1080i, 25.00 FPS (Average), 12.50 Mbps (Average)
Аудио: AC3 Audio: 2/0 Channels (L, R), 48.0 kHz, 192 kbps.
Format : MPEG-TS
File size : 8.62 GiB
Duration : 1h 34mn
Overall bit rate : 13.1 Mbps

Video
ID : 2332 (0x91C)
Menu ID : 1 (0x1)
Format : AVC
Format/Info : Advanced Video Codec
Format profile : High@L4.0
Format settings, CABAC : Yes
Format settings, ReFrames : 3 frames
Codec ID : 27
Duration : 1h 34mn
Bit rate : 12.2 Mbps
Width : 1 920 pixels
Height : 1 080 pixels
Display aspect ratio : 16:9
Frame rate : 25.000 fps
Standard : Component
Color space : YUV
Chroma subsampling : 4:2:0
Bit depth : 8 bits
Scan type : Interlaced
Scan order : Top Field First
Bits/(Pixel*Frame) : 0.236
Stream size : 8.06 GiB (94%)
Color primaries : BT.709-5, BT.1361, IEC 61966-2-4, SMPTE RP177
Transfer characteristics : BT.709-5, BT.1361
Matrix coefficients : BT.709-5, BT.1361, IEC 61966-2-4 709, SMPTE RP177

Audio
ID : 2333 (0x91D)
Menu ID : 1 (0x1)
Format : AC-3
Format/Info : Audio Coding 3
Mode extension : CM (complete main)
Codec ID : 6
Duration : 1h 34mn
Bit rate mode : Constant
Bit rate : 192 Kbps
Channel(s) : 2 channels
Channel positions : Front: L R
Sampling rate : 48.0 KHz
Bit depth : 16 bits
Compression mode : Lossy
Stream size : 130 MiB (1%)
Language : English











135 lbs.: Yaotzin Meza vs. Sergio Pettis
170 lbs.: Lance Benoist vs. Bobby Voelker
125 lbs.: Scott Jorgensen vs. Danny Martinez
155 lbs.: Jake Lindsey vs. Jon Tuck



   Похожие торренты   Торрент   Размер 
В этой теме нет новых непрочитанных сообщений. Смешанные единоборства. MMA. UFC Fight Night 60: Henderson vs. Thatch (Prelims + Main Card) [14.02] (2015) HDTV 1080i

25 | 4

15.23 ГБ

В этой теме нет новых непрочитанных сообщений. Смешанные единоборства. UFC Fight Night 37 - UFC Fight Night: Kim vs. Hathaway (2014) HDTV 1080i

6 | 8

8.05 ГБ

В этой теме нет новых непрочитанных сообщений. Смешанные единоборства. UFC Fight Night 40: Brown vs Silva - Prelims (2014) HDTVRip

18 | 3

842.3 МБ

В этой теме нет новых непрочитанных сообщений. Смешанные единоборства. UFC Fight Night 38 : Gustafsson vs Manuwa [08.03] (2014) HDTV 1080i

5 | 13

13.92 ГБ

В этой теме нет новых непрочитанных сообщений. Смешанные единоборства. UFC Fight Night 29: Maia vs. Shields, main+prelims [09.10] (2013) HDTVRip

1 | 2

2.25 ГБ

В этой теме нет новых непрочитанных сообщений. Смешанные единоборства. MMA. UFC Fight Night 62: Maia vs. LaFlare (Early Prelims) [21.03] (2015) WEBRip

26 | 5

420.21 МБ

В этой теме нет новых непрочитанных сообщений. Смешанные единоборства. UFC Fight Night 36: Machida vs. Mousasi - Main Card [15.02] (2014) HDTV 1080i

22 | 7

14.83 ГБ




Вы не можете начинать темы
Вы не можете отвечать на сообщения
Вы не можете редактировать свои сообщения
Вы не можете удалять свои сообщения
Вы не можете добавлять вложения

Перейти:  
Для Мосгорсуда, Роскомнадзора и рекламодателей: mosgorsud-torrent[собачка]yandex.ru
 Вход
ppkBB3cker v.2 © 2008-2014 @ PPK
[ Time : 2.350s | 16 Queries | GZIP : Off ]

Торрент трекер RUTOR.IN, Не можете зайти на rutor.org? Какой новый адрес рутор? Какое зеркало рутор? Не работает rutor.org и зеркала? Тогда наш торрент специально для вас. Rutor.in неофициальное зеркало rutor. В случае если у Вас заблокирован rutor или вдруг Вы не можете на него зайти, то Вы без труда сможете скачать бесплатно и без рекламы последние новинки кино, игр, сериалов и прочего у нас, на Rutor.in. Не нужно использовать прокси, чтобы зайти на рутор, достаточно воспользоваться нашим ресурсом. Все новые фильмы, игры, сериалы, книги и музыка за 2013 и 2014 годы через торрент бесплатно. Скачивайте фильмы в хорошем качестве, игры для пк, xbox, playstation без регистрации. У нас вы найдете новые Зарубежные сериалы и Русские сериалы 2013, 2014, 2015 годов. Оставайтесь с нами, качайте любимые фильмы, игры, сериалы, книги и музыку.