img image001 image001 image001 image001 image001 image001 image001 image001 image001 image001 image001 image001 image001 image001 image001

Planets Sun Sun Sun
Статистика раздачи
Автор: Nickolas3434 | Размер: 66.35 ГБ | Добавлен: 14 июн 2014
Раздают: 0    Качают: 8
Скачать торрент
Скачать торрент
Описание торрента

СообщениеДобавлено: 14 июн 2014 

NBA Playoffs 2014: THE FINALS

San Antonio Spurs @ Miami Heat


Вид спорта: Баскетбол
Дата: 05.06.2014 - 12.06.2014
Комментарий: Профессиональный
Язык комментариев: Английский
Source: ABC HD | BS
Автор рипа/записи: собственный | unknown


Качество: HDTV | HDStream
Формат: mkv | ts
PreGAME: NBA Countdown:
Game #1
Видео: ~ 3200 kbps || 59.94 fps || 1280x720 || 16:9
Аудио: 128 Kbps || 44.1 KHz || 2 channels
Games #2-4
Видео: ~ 14 100 kbps || 59.94 fps || 1280x720 || 16:9
Аудио: 384 Kbps || 48 KHz || 16 Bit || 5.1 channels
GAME:
Видео: ~ 14 700 kbps || 59.94 fps || 1280x720 || 16:9
Аудио: 384 Kbps || 48 KHz || 16 Bit || 5.1 channels
PostGAME:
Видео: ~ 3300 | 3200 kbps || 59.94 fps | 25 fps || 1280x720 || 16:9
Аудио: 256 | 128 Kbps || 48 | 44.1 KHz || 2 channels

Код:
Format                                   : MPEG-TS
File size                                : 13.0 GiB
Duration                                 : 1h 56mn
Overall bit rate mode                    : Variable
Overall bit rate                         : 15.9 Mbps
Maximum Overall bit rate                 : 35.5 Mbps
Law rating                               : None

Video
ID                                       : 4113 (0x1011)
Menu ID                                  : 1 (0x1)
Format                                   : MPEG Video
Format version                           : Version 2
Format profile                           : Main@High
Format settings, BVOP                    : Yes
Format settings, Matrix                  : Custom
Format settings, GOP                     : M=3, N=30
Codec ID                                 : 2
Duration                                 : 1h 56mn
Bit rate mode                            : Variable
Bit rate                                 : 14.7 Mbps
Maximum bit rate                         : 38.8 Mbps
Width                                    : 1 280 pixels
Height                                   : 720 pixels
Display aspect ratio                     : 16:9
Frame rate                               : 59.940 fps
Color space                              : YUV
Chroma subsampling                       : 4:2:0
Bit depth                                : 8 bits
Scan type                                : Progressive
Compression mode                         : Lossy
Bits/(Pixel*Frame)                       : 0.267
Time code of first frame                 : 00:09:21;34
Time code source                         : Group of pictures header
Stream size                              : 12.0 GiB (93%)

Audio
ID                                       : 4352 (0x1100)
Menu ID                                  : 1 (0x1)
Format                                   : AC-3
Format/Info                              : Audio Coding 3
Mode extension                           : CM (complete main)
Format settings, Endianness              : Big
Codec ID                                 : 129
Duration                                 : 1h 56mn
Bit rate mode                            : Constant
Bit rate                                 : 384 Kbps
Channel(s)                               : 6 channels
Channel positions                        : Front: L C R, Side: L R, LFE
Sampling rate                            : 48.0 KHz
Bit depth                                : 16 bits
Compression mode                         : Lossy
Delay relative to video                  : -33ms
Stream size                              : 321 MiB (2%)



00:20:01 + 01:56:54 + 00:33:52 + 01:00:36




00:20:02 + 02:11:45 + 00:33:10




00:20:01 + 02:03:52 + 01:33:56




00:20:29+ + 01:58:14

[/spoiler][/spoiler][/spoiler][/spoiler][/spoiler][/spoiler]



   Похожие торренты   Торрент   Размер 
В этой теме нет новых непрочитанных сообщений. Баскетбол. NBA Playoffs 2014. The Finals - Game 1 - 4: San Antonio Spurs @ Miami Heat [05 - 12.06] (2014) WEB-DL 720p | 60 fps

367 | 1795

13.68 ГБ

В этой теме нет новых непрочитанных сообщений. Баскетбол. NBA Playoffs 2014. The Finals - Game 1 - 4: San Antonio Spurs @ Miami Heat [05 - 12.06] (2014) WEB-DL 720p | 60 fps

4 | 45

17.49 ГБ

В этой теме нет новых непрочитанных сообщений. Баскетбол. NBA Playoffs 2014. The Finals - Game 1 - 3: San Antonio Spurs @ Miami Heat [05 - 10.06] (2014) WEB-DL 720p | 60 fps

486 | 7002

10.39 ГБ

В этой теме нет новых непрочитанных сообщений. Баскетбол. NBA Playoffs 2014. The Finals - Game 3: San Antonio Spurs @ Miami Heat [10.06] (2014) HDTVRip 720p

190 | 217

2.89 ГБ

В этой теме нет новых непрочитанных сообщений. Баскетбол. NBA Playoffs 2014. The Finals - Game 2: Miami Heat @ San Antonio Spurs [08.06] (2014) HDTVRip 720p

337 | 18

2.75 ГБ

В этой теме нет новых непрочитанных сообщений. Баскетбол. NBA Playoffs 2014. The Finals - Game 4: San Antonio Spurs @ Miami Heat [12.06] (2014) HDTVRip 720p

389 | 87

2.92 ГБ

В этой теме нет новых непрочитанных сообщений. Баскетбол. NBA Playoffs 2014. The Finals - Game 1: Miami Heat @ San Antonio Spurs [05.06] (2014) HDTVRip 720p

198 | 3

2.53 ГБ




Вы не можете начинать темы
Вы не можете отвечать на сообщения
Вы не можете редактировать свои сообщения
Вы не можете удалять свои сообщения
Вы не можете добавлять вложения

Перейти:  
Для Мосгорсуда, Роскомнадзора и рекламодателей: mosgorsud-torrent[собачка]yandex.ru
 Вход
ppkBB3cker v.2 © 2008-2014 @ PPK
[ Time : 0.050s | 15 Queries | GZIP : Off ]

Торрент трекер RUTOR.IN, Не можете зайти на rutor.org? Какой новый адрес рутор? Какое зеркало рутор? Не работает rutor.org и зеркала? Тогда наш торрент специально для вас. Rutor.in неофициальное зеркало rutor. В случае если у Вас заблокирован rutor или вдруг Вы не можете на него зайти, то Вы без труда сможете скачать бесплатно и без рекламы последние новинки кино, игр, сериалов и прочего у нас, на Rutor.in. Не нужно использовать прокси, чтобы зайти на рутор, достаточно воспользоваться нашим ресурсом. Все новые фильмы, игры, сериалы, книги и музыка за 2013 и 2014 годы через торрент бесплатно. Скачивайте фильмы в хорошем качестве, игры для пк, xbox, playstation без регистрации. У нас вы найдете новые Зарубежные сериалы и Русские сериалы 2013, 2014, 2015 годов. Оставайтесь с нами, качайте любимые фильмы, игры, сериалы, книги и музыку.