img image001 image001 image001 image001 image001 image001 image001 image001 image001 image001 image001 image001 image001 image001 image001

Planets Sun Sun Sun
Статистика раздачи
Автор: Nickolas3434 | Размер: 4.15 ГБ | Добавлен: 26 июн 2014
Раздают: 26    Качают: 33
Скачать торрент
Скачать торрент
Описание торрента

СообщениеДобавлено: 26 июн 2014 

Дневник Чемпионата Мира 2014. Выпуски 1-13

Год выпуска: 2014
Вид спорта: Футбол
Комментарий: Профессиональный
Язык комментариев: Русский
Описание: Наиболее важные новости мирового первенства в ежедневном "Дневнике Чемпионата Мира 2014"! В каждом выпуске обзоры матчей прошедшего игрового дня, превью матчей грядущего игрового дня и сюжеты из Бразилии.

Автор рипа: sanchez2011
Тех. данные рипа с России 1 (Выпуски 1, 4, 6)

Качество: SATRip
Формат: AVI
Видео кодек: XviD
Аудио кодек: MP3
Видео: MPEG-4 Visual (H263) 720x448 (16:10) 25.00fps 1700kbps
Аудио: MPEG Audio Layer 3 48000Hz stereo 128kbps

Код:
General
Complete name              : D:Дневник Чемпионата Мира 2014 Россия 1 XviDВыпуск 01 (13.06.2014).avi
Format                  : AVI
Format/Info               : Audio Video Interleave
File size                : 321 MiB
Duration                 : 24mn 28s
Overall bit rate             : 1 835 Kbps
Writing application           : VirtualDubMod 1.5.10.2 (build 2540/release)
Writing library             : VirtualDubMod build 2540/release

Video
ID                    : 0
Format                  : MPEG-4 Visual
Format profile              : Advanced Simple@L5
Format settings, BVOP          : 2
Format settings, QPel          : No
Format settings, GMC           : No warppoints
Format settings, Matrix         : Default (H.263)
Codec ID                 : XVID
Codec ID/Hint              : XviD
Duration                 : 24mn 28s
Bit rate                 : 1 697 Kbps
Width                  : 720 pixels
Height                  : 448 pixels
Display aspect ratio           : 16:10
Frame rate                : 25.000 fps
Color space               : YUV
Chroma subsampling            : 4:2:0
Bit depth                : 8 bits
Scan type                : Progressive
Compression mode             : Lossy
Bits/(Pixel*Frame)            : 0.210
Stream size               : 297 MiB (92%)
Writing library             : XviD 64

Audio
ID                    : 1
Format                  : MPEG Audio
Format version              : Version 1
Format profile              : Layer 3
Mode                   : Joint stereo
Mode extension              : MS Stereo
Codec ID                 : 55
Codec ID/Hint              : MP3
Duration                 : 24mn 28s
Bit rate mode              : Constant
Bit rate                 : 128 Kbps
Channel(s)                : 2 channels
Sampling rate              : 48.0 KHz
Compression mode             : Lossy
Stream size               : 22.4 MiB (7%)
Alignment                : Aligned on interleaves
Interleave, duration           : 40 ms (1.00 video frame)
Interleave, preload duration       : 504 ms
Writing library             : LAME3.100Є


Тех. данные рипа с России HD (Выпуски 2-3, 5, 7-11)

Качество: HDTVRip
Формат: AVI
Видео кодек: XviD
Аудио кодек: MP3
Видео: MPEG-4 Visual (H263) 704x400 (16:9) 25.00fps 1700kbps
Аудио: MPEG Audio Layer 3 48000Hz stereo 128kbps

Код:
General
Complete name              : D:Дневник Чемпионата Мира 2014 Россия 1 XviDВыпуск 02 (14.06.2014).avi
Format                  : AVI
Format/Info               : Audio Video Interleave
File size                : 326 MiB
Duration                 : 24mn 47s
Overall bit rate             : 1 835 Kbps
Writing application           : VirtualDubMod 1.5.10.2 (build 2540/release)
Writing library             : VirtualDubMod build 2540/release

Video
ID                    : 0
Format                  : MPEG-4 Visual
Format profile              : Advanced Simple@L5
Format settings, BVOP          : 2
Format settings, QPel          : No
Format settings, GMC           : No warppoints
Format settings, Matrix         : Default (H.263)
Codec ID                 : XVID
Codec ID/Hint              : XviD
Duration                 : 24mn 47s
Bit rate                 : 1 698 Kbps
Width                  : 704 pixels
Height                  : 400 pixels
Display aspect ratio           : 16:9
Frame rate                : 25.000 fps
Color space               : YUV
Chroma subsampling            : 4:2:0
Bit depth                : 8 bits
Scan type                : Progressive
Compression mode             : Lossy
Bits/(Pixel*Frame)            : 0.241
Stream size               : 301 MiB (92%)
Writing library             : XviD 64

Audio
ID                    : 1
Format                  : MPEG Audio
Format version              : Version 1
Format profile              : Layer 3
Mode                   : Joint stereo
Mode extension              : MS Stereo
Codec ID                 : 55
Codec ID/Hint              : MP3
Duration                 : 24mn 47s
Bit rate mode              : Constant
Bit rate                 : 128 Kbps
Channel(s)                : 2 channels
Sampling rate              : 48.0 KHz
Compression mode             : Lossy
Stream size               : 22.7 MiB (7%)
Alignment                : Aligned on interleaves
Interleave, duration           : 40 ms (1.00 video frame)
Interleave, preload duration       : 504 ms
Writing library             : LAME3.100Є


Выпуск 1 (13.06.2014)
Продолжительность: 00:24:28
Выпуск 2 (14.06.2014)
Продолжительность: 00:24:47
Выпуск 3 (15.06.2014)
Продолжительность: 00:24:55
Выпуск 4 (16.06.2014)
Продолжительность: 00:24:52
Выпуск 5 (17.06.2014)
Продолжительность: 00:24:37
Выпуск 6 (18.06.2014)
Продолжительность: 00:24:52
Выпуск 7 (19.06.2014)
Продолжительность: 00:24:50
Выпуск 8 (20.06.2014)
Продолжительность: 00:25:06
Выпуск 9 (21.06.2014)
Продолжительность: 00:24:56
Выпуск 10 (22.06.2014)
Продолжительность: 00:24:35



   Похожие торренты   Торрент   Размер 
В этой теме нет новых непрочитанных сообщений. Футбол. Чемпионат Мира 2014. Дневник. Выпуски 1-16. Россия 1, Россия HD (2014) SATRip, HDTVRip

0 | 2

5.12 ГБ

В этой теме нет новых непрочитанных сообщений. Футбол. Чемпионат Мира 2014. Дневник. Выпуски 1-18. Россия 1, Россия HD (2014) SATRip, HDTVRip

10 | 7

5.77 ГБ

В этой теме нет новых непрочитанных сообщений. Футбол. Чемпионат Мира 2014. Дневник. Выпуски 1-12. Россия 1, Россия HD (2014) SATRip, HDTVRip

9 | 27

3.82 ГБ

В этой теме нет новых непрочитанных сообщений. Футбол. Чемпионат Мира 2014. Дневник. Выпуски 1-15. Россия 1, Россия HD (2014) SATRip, HDTVRip

2 | 52

4.8 ГБ

В этой теме нет новых непрочитанных сообщений. Футбол. Чемпионат Мира 2014. Дневник. Выпуски 2-3, 5, 7-12, 14-15. Россия HD (2014) HDTVRip 720р

2 | 6

5.98 ГБ

В этой теме нет новых непрочитанных сообщений. Футбол. Чемпионат Мира 2014. Дневник. Выпуски 2-3, 5, 7-12, 14-16. Россия HD (2014) HDTVRip 720р

0 | 2

6.53 ГБ

В этой теме нет новых непрочитанных сообщений. Футбол. Чемпионат Мира 2014. Дневник. Выпуски 2-3, 5, 7-12, 14-18. Россия HD (2014) HDTVRip 720р

1 | 7

7.62 ГБ




Вы не можете начинать темы
Вы не можете отвечать на сообщения
Вы не можете редактировать свои сообщения
Вы не можете удалять свои сообщения
Вы не можете добавлять вложения

Перейти:  
Для Мосгорсуда, Роскомнадзора и рекламодателей: mosgorsud-torrent[собачка]yandex.ru
 Вход
ppkBB3cker v.2 © 2008-2014 @ PPK
[ Time : 0.076s | 15 Queries | GZIP : Off ]

Торрент трекер RUTOR.IN, Не можете зайти на rutor.org? Какой новый адрес рутор? Какое зеркало рутор? Не работает rutor.org и зеркала? Тогда наш торрент специально для вас. Rutor.in неофициальное зеркало rutor. В случае если у Вас заблокирован rutor или вдруг Вы не можете на него зайти, то Вы без труда сможете скачать бесплатно и без рекламы последние новинки кино, игр, сериалов и прочего у нас, на Rutor.in. Не нужно использовать прокси, чтобы зайти на рутор, достаточно воспользоваться нашим ресурсом. Все новые фильмы, игры, сериалы, книги и музыка за 2013 и 2014 годы через торрент бесплатно. Скачивайте фильмы в хорошем качестве, игры для пк, xbox, playstation без регистрации. У нас вы найдете новые Зарубежные сериалы и Русские сериалы 2013, 2014, 2015 годов. Оставайтесь с нами, качайте любимые фильмы, игры, сериалы, книги и музыку.