img image001 image001 image001 image001 image001 image001 image001 image001 image001 image001 image001 image001 image001 image001 image001

Planets Sun Sun Sun
Статистика раздачи
Автор: Nickolas3434 | Размер: 5.98 ГБ | Добавлен: 27 июн 2014
Раздают: 2    Качают: 6
Скачать торрент
Скачать торрент
Описание торрента

СообщениеДобавлено: 27 июн 2014 

Дневник Чемпионата Мира 2014. Выпуски 2-3, 5, 7-12, 14-15

Год выпуска: 2014
Вид спорта: Футбол
Комментарий: Профессиональный
Язык комментариев: Русский
Описание: Наиболее важные новости мирового первенства в ежедневном "Дневнике Чемпионата Мира 2014"! В каждом выпуске обзоры матчей прошедшего игрового дня, превью матчей грядущего игрового дня и сюжеты из Бразилии.

Автор рипа: sanchez2011
Качество: HDTVRip
Формат: MKV
Видео кодек: AVC
Аудио кодек: MP3
Видео: MPEG-4 Video (H264) 1280x720 (16:9) 25.00fps 3000kbps
Аудио: MPEG Audio Layer 3 48000Hz stereo 128kbps
Код:
General
Unique ID                : 235882325882756749437102083950764217503 (0xB1754891F1B39F5A5F2BAF871265D49F)
Complete name              : D:Дневник Чемпионата Мира 2014 Россия HD 720pВыпуск 02 (14.06.2014).mkv
Format                  : Matroska
Format version              : Version 2
File size                : 560 MiB
Duration                 : 24mn 47s
Overall bit rate             : 3 159 Kbps
Writing application           : XviD4PSP 6.0 / 53.6.0
Writing library             : XviD4PSP 6.0 / 53.6.0

Video
ID                    : 1
Format                  : AVC
Format/Info               : Advanced Video Codec
Format profile              : High@L4.1
Format settings, CABAC          : Yes
Format settings, ReFrames        : 3 frames
Codec ID                 : V_MPEG4/ISO/AVC
Duration                 : 24mn 47s
Bit rate                 : 3 000 Kbps
Width                  : 1 280 pixels
Height                  : 720 pixels
Display aspect ratio           : 16:9
Frame rate mode             : Constant
Frame rate                : 25.000 fps
Color space               : YUV
Chroma subsampling            : 4:2:0
Bit depth                : 8 bits
Scan type                : Progressive
Bits/(Pixel*Frame)            : 0.130
Stream size               : 526 MiB (94%)
Writing library             : x264 core 116 r2019M 9cc407d
Encoding settings            : cabac=1 / ref=3 / deblock=1:0:0 / analyse=0x3:0x133 / me=hex / subme=7 / psy=1 / psy_rd=1.00:0.20 / mixed_ref=1 / me_range=16 / chroma_me=1 / trellis=1 / 8x8dct=1 / cqm=0 / deadzone=21,11 / fast_pskip=1 / chroma_qp_offset=-3 / threads=8 / sliced_threads=0 / nr=0 / decimate=1 / interlaced=0 / bluray_compat=0 / constrained_intra=0 / bframes=3 / b_pyramid=1 / b_adapt=2 / b_bias=0 / direct=3 / weightb=1 / open_gop=0 / weightp=2 / keyint=250 / keyint_min=25 / scenecut=40 / intra_refresh=0 / rc_lookahead=40 / rc=abr / mbtree=1 / bitrate=3000 / ratetol=1.0 / qcomp=0.60 / qpmin=10 / qpmax=51 / qpstep=4 / ip_ratio=1.40 / aq=1:1.00
Default                 : Yes
Forced                  : No

Audio
ID                    : 2
Format                  : MPEG Audio
Format version              : Version 1
Format profile              : Layer 3
Mode                   : Joint stereo
Mode extension              : MS Stereo
Codec ID                 : A_MPEG/L3
Codec ID/Hint              : MP3
Duration                 : 24mn 47s
Bit rate mode              : Constant
Bit rate                 : 128 Kbps
Channel(s)                : 2 channels
Sampling rate              : 48.0 KHz
Compression mode             : Lossy
Stream size               : 22.7 MiB (4%)
Writing library             : LAME3.98.2
Language                 : English
Default                 : Yes
Forced                  : No
Выпуск 2 (14.06.2014)
Продолжительность: 00:24:47
Выпуск 3 (15.06.2014)
Продолжительность: 00:24:55
Выпуск 5 (17.06.2014)
Продолжительность: 00:24:37
Выпуск 7 (19.06.2014)
Продолжительность: 00:24:50
Выпуск 8 (20.06.2014)
Продолжительность: 00:25:06
Выпуск 9 (21.06.2014)
Продолжительность: 00:24:56
Выпуск 10 (22.06.2014)
Продолжительность: 00:24:35
Выпуск 11 (23.06.2014)
Продолжительность: 00:24:57



   Похожие торренты   Торрент   Размер 
В этой теме нет новых непрочитанных сообщений. Футбол. Чемпионат Мира 2014. Дневник. Выпуски 2-3, 5, 7-12, 14-16. Россия HD (2014) HDTVRip 720р

0 | 2

6.53 ГБ

В этой теме нет новых непрочитанных сообщений. Футбол. Чемпионат Мира 2014. Дневник. Выпуски 2-3, 5, 7-12. Россия HD (2014) HDTVRip 720р

0 | 16

4.88 ГБ

В этой теме нет новых непрочитанных сообщений. Футбол. Чемпионат Мира 2014. Дневник. Выпуски 2-3, 5, 7-12, 14-18. Россия HD (2014) HDTVRip 720р

1 | 7

7.62 ГБ

В этой теме нет новых непрочитанных сообщений. Футбол. Чемпионат Мира 2014. Дневник. Выпуски 1-15. Россия 1, Россия HD (2014) SATRip, HDTVRip

2 | 52

4.8 ГБ

В этой теме нет новых непрочитанных сообщений. Футбол. Чемпионат Мира 2014. Дневник. Выпуски 1-12. Россия 1, Россия HD (2014) SATRip, HDTVRip

9 | 27

3.82 ГБ

В этой теме нет новых непрочитанных сообщений. Футбол. Чемпионат Мира 2014. Дневник. Выпуски 1-16. Россия 1, Россия HD (2014) SATRip, HDTVRip

0 | 2

5.12 ГБ

В этой теме нет новых непрочитанных сообщений. Футбол. Чемпионат Мира 2014. Дневник. Выпуски 1-18. Россия 1, Россия HD (2014) SATRip, HDTVRip

10 | 7

5.77 ГБ




Вы не можете начинать темы
Вы не можете отвечать на сообщения
Вы не можете редактировать свои сообщения
Вы не можете удалять свои сообщения
Вы не можете добавлять вложения

Перейти:  
Для Мосгорсуда, Роскомнадзора и рекламодателей: mosgorsud-torrent[собачка]yandex.ru
 Вход
ppkBB3cker v.2 © 2008-2014 @ PPK
[ Time : 0.044s | 17 Queries | GZIP : Off ]

Торрент трекер RUTOR.IN, Не можете зайти на rutor.org? Какой новый адрес рутор? Какое зеркало рутор? Не работает rutor.org и зеркала? Тогда наш торрент специально для вас. Rutor.in неофициальное зеркало rutor. В случае если у Вас заблокирован rutor или вдруг Вы не можете на него зайти, то Вы без труда сможете скачать бесплатно и без рекламы последние новинки кино, игр, сериалов и прочего у нас, на Rutor.in. Не нужно использовать прокси, чтобы зайти на рутор, достаточно воспользоваться нашим ресурсом. Все новые фильмы, игры, сериалы, книги и музыка за 2013 и 2014 годы через торрент бесплатно. Скачивайте фильмы в хорошем качестве, игры для пк, xbox, playstation без регистрации. У нас вы найдете новые Зарубежные сериалы и Русские сериалы 2013, 2014, 2015 годов. Оставайтесь с нами, качайте любимые фильмы, игры, сериалы, книги и музыку.