img image001 image001 image001 image001 image001 image001 image001 image001 image001 image001 image001 image001 image001 image001 image001

Planets Sun Sun Sun
Статистика раздачи
Автор: Nickolas3434 | Размер: 5.43 ГБ | Добавлен: 28 июн 2014
Раздают: 12    Качают: 23
Скачать торрент
Скачать торрент
Описание торрента

СообщениеДобавлено: 28 июн 2014 

Дневник Чемпионата Мира 2014. Выпуски 1-16
Год выпуска: 2014
Вид спорта: Футбол
Комментарий: Профессиональный
Язык комментариев: Русский
Описание: Наиболее важные новости мирового первенства в ежедневном "Дневнике Чемпионата Мира 2014"!
Автор рипа: sanchez2011
Качество: HDTVRip
Формат: AVI
Видео кодек: XviD
Аудио кодек: MP3
Видео: MPEG-4 Visual (H263) 704x400 (16:9) 25.00fps 1700kbps
Аудио: MPEG Audio Layer 3 48000Hz stereo 128kbps
Код:
General
Complete name              : D:Дневник Чемпионата Мира 2014 ВГТРК XviDВыпуск 01 (12.06.2014).avi
Format                  : AVI
Format/Info               : Audio Video Interleave
File size                : 350 MiB
Duration                 : 26mn 37s
Overall bit rate             : 1 836 Kbps
Writing application           : VirtualDubMod 1.5.10.2 (build 2540/release)
Writing library             : VirtualDubMod build 2540/release

Video
ID                    : 0
Format                  : MPEG-4 Visual
Format profile              : Advanced Simple@L5
Format settings, BVOP          : 2
Format settings, QPel          : No
Format settings, GMC           : No warppoints
Format settings, Matrix         : Default (H.263)
Codec ID                 : XVID
Codec ID/Hint              : XviD
Duration                 : 26mn 37s
Bit rate                 : 1 699 Kbps
Width                  : 704 pixels
Height                  : 400 pixels
Display aspect ratio           : 16:9
Frame rate                : 25.000 fps
Color space               : YUV
Chroma subsampling            : 4:2:0
Bit depth                : 8 bits
Scan type                : Progressive
Compression mode             : Lossy
Bits/(Pixel*Frame)            : 0.241
Stream size               : 324 MiB (92%)
Writing library             : XviD 64

Audio
ID                    : 1
Format                  : MPEG Audio
Format version              : Version 1
Format profile              : Layer 3
Mode                   : Joint stereo
Mode extension              : MS Stereo
Codec ID                 : 55
Codec ID/Hint              : MP3
Duration                 : 26mn 37s
Bit rate mode              : Constant
Bit rate                 : 128 Kbps
Channel(s)                : 2 channels
Sampling rate              : 48.0 KHz
Compression mode             : Lossy
Stream size               : 24.4 MiB (7%)
Alignment                : Aligned on interleaves
Interleave, duration           : 40 ms (1.00 video frame)
Interleave, preload duration       : 504 ms
Writing library             : LAME3.100Є
Выпуск 1 (12.06.2014)
Продолжительность: 00:26:37
Перед стартом: рассказ о Бразилии, ее сборной. Обзор сборных-фаворитов и их потерь - футболистов, которые не поедут на Чемпионат Мира. "Вне игры": рубрика, где собрано все самое интересное из мира социальных сетей - о футболе и футболистах. Сборная России - корреспондент Дмитрий Лукашев посетил накануне Чемпионата Мира открытую тренировку нашей команды. Обзор товарищеских матчей, предварявших Чемпионат Мира. Россия на Чемпионатах Мира: исторический обзор выступления нашей сборной на Чемпионатах Мира, начиная с 1994 года. Безопасность в Бразилии: сколько потратили и каковы результаты. Какая традиция у Бразильских фанатов? Какие футболисты, игравшие в одном клубе, выйдут на стартовый матч друг против друга? И многое другое.
Выпуск 2 (13.06.2014)
Продолжительность: 00:26:09
Обзор матча открытия между сборными Бразилии и Хорватии. Превью матчей между сборными Мексики и Камеруна и сборными Нидерландов и Испании. А также яркие моменты сборной Бразилии, собранные в социальных сетях. И многое другое.
Выпуск 3 (14.06.2014)
Продолжительность: 00:28:04
Выпуск 4 (15.06.2014)
Продолжительность: 00:24:35
Выпуск 5 (16.06.2014)
Продолжительность: 00:27:00
Выпуск 6 (17.06.2014)
Продолжительность: 00:25:56



   Похожие торренты   Торрент   Размер 
В этой теме нет новых непрочитанных сообщений. Футбол. Чемпионат Мира 2014. Дневник. Спорт 1 HD [Выпуски 01-13] (2014) HDTVRip

4 | 20

4.38 ГБ

В этой теме нет новых непрочитанных сообщений. Футбол. Чемпионат Мира 2014. Дневник. Спорт 1 HD [Выпуски 01-30] (2014) HDTVRip

16 | 32

10.54 ГБ

В этой теме нет новых непрочитанных сообщений. Футбол. Чемпионат Мира 2014. Дневник. Спорт 1 HD [Выпуски 01-02] [12-13.06] (2014) HDTVRip

80 | 51

693.65 МБ

В этой теме нет новых непрочитанных сообщений. Футбол. Чемпионат Мира 2014. Дневник. Спорт 1 HD [Выпуски 01-19] (2014) HDTVRip

2 | 6

6.48 ГБ

В этой теме нет новых непрочитанных сообщений. Футбол. Чемпионат Мира 2014. Дневник. Спорт 1 HD [Выпуски 01-14] (2014) HDTVRip

18 | 87

4.74 ГБ

В этой теме нет новых непрочитанных сообщений. Футбол. Чемпионат Мира 2014. Дневник. Спорт 1 HD [Выпуски 01-10] [12-21.06] (2014) HDTVRip

43 | 59

3.38 ГБ

В этой теме нет новых непрочитанных сообщений. Футбол. Чемпионат Мира 2014. Дневник. Спорт 1 HD [Выпуски 01-15] (2014) HDTVRip

2 | 17

5.1 ГБ




Вы не можете начинать темы
Вы не можете отвечать на сообщения
Вы не можете редактировать свои сообщения
Вы не можете удалять свои сообщения
Вы не можете добавлять вложения

Перейти:  
Для Мосгорсуда, Роскомнадзора и рекламодателей: mosgorsud-torrent[собачка]yandex.ru
 Вход
ppkBB3cker v.2 © 2008-2014 @ PPK
[ Time : 0.530s | 15 Queries | GZIP : Off ]

Торрент трекер RUTOR.IN, Не можете зайти на rutor.org? Какой новый адрес рутор? Какое зеркало рутор? Не работает rutor.org и зеркала? Тогда наш торрент специально для вас. Rutor.in неофициальное зеркало rutor. В случае если у Вас заблокирован rutor или вдруг Вы не можете на него зайти, то Вы без труда сможете скачать бесплатно и без рекламы последние новинки кино, игр, сериалов и прочего у нас, на Rutor.in. Не нужно использовать прокси, чтобы зайти на рутор, достаточно воспользоваться нашим ресурсом. Все новые фильмы, игры, сериалы, книги и музыка за 2013 и 2014 годы через торрент бесплатно. Скачивайте фильмы в хорошем качестве, игры для пк, xbox, playstation без регистрации. У нас вы найдете новые Зарубежные сериалы и Русские сериалы 2013, 2014, 2015 годов. Оставайтесь с нами, качайте любимые фильмы, игры, сериалы, книги и музыку.