img image001 image001 image001 image001 image001 image001 image001 image001 image001 image001 image001 image001 image001 image001 image001

Planets Sun Sun Sun
Статистика раздачи
Автор: Nickolas3434 | Размер: 652.46 МБ | Добавлен: 03 авг 2014
Раздают: 36    Качают: 4
Скачать торрент
Скачать торрент
Описание торрента

СообщениеДобавлено: 03 авг 2014 

Оригинальное название: По итогам дня
Год выпуска: 2014
Жанр: Ток-шоу, спорт, футбол
Выпущено: Россия, НТВ+ Наш футбол
В ролях: Эльвин Керимов

О фильме: Аналитическая программа о российском футболе. По итогам дня 02.08.2014

General
Complete name : E:UsersМаксимкаDownloadsПо итогам дня - Эфир от 02.08.2014 - Наш Футбол.Выпуск 1.mp4
Format : MPEG-4
Format profile : Base Media / Version 2
Codec ID : mp42
File size : 652 MiB
Duration : 33mn 34s
Overall bit rate mode : Variable
Overall bit rate : 2 717 Kbps
Encoded date : UTC 2014-08-01 23:13:40
Tagged date : UTC 2014-08-01 23:13:40
gsst : 0
gstd : 2014168
gssd : B4A7DDA08HH1407041828691856
gshh : r8---sn-4g57kuee.googlevideo.com

Video
ID : 1
Format : AVC
Format/Info : Advanced Video Codec
Format profile : High@L3.1
Format settings, CABAC : Yes
Format settings, ReFrames : 1 frame
Format settings, GOP : M=1, N=60
Codec ID : avc1
Codec ID/Info : Advanced Video Coding
Duration : 33mn 34s
Bit rate : 2 523 Kbps
Maximum bit rate : 7 991 Kbps
Width : 1 280 pixels
Height : 720 pixels
Display aspect ratio : 16:9
Frame rate mode : Constant
Frame rate : 25.000 fps
Color space : YUV
Chroma subsampling : 4:2:0
Bit depth : 8 bits
Scan type : Progressive
Bits/(Pixel*Frame) : 0.110
Stream size : 606 MiB (93%)
Tagged date : UTC 2014-08-01 23:15:02

Audio
ID : 2
Format : AAC
Format/Info : Advanced Audio Codec
Format profile : LC
Codec ID : 40
Duration : 33mn 34s
Bit rate mode : Variable
Bit rate : 192 Kbps
Maximum bit rate : 201 Kbps
Channel(s) : 2 channels
Channel positions : Front: L R
Sampling rate : 44.1 KHz
Compression mode : Lossy
Stream size : 46.1 MiB (7%)
Title : IsoMedia File Produced by Google, 5-11-2011
Encoded date : UTC 2014-08-01 23:14:31
Tagged date : UTC 2014-08-01 23:15:02



Качество: WEBRip (720p)
Видео: AVC, 2523 Кбит/с, 1280x720
Аудио: AAC, 2 ch, 192 Кбит/с
Продолжительность: 00:33:34
Язык: Русский



   Похожие торренты   Торрент   Размер 
В этой теме нет новых непрочитанных сообщений. Банши: Предыстория / Banshee Origins [S01-03] (2013-2015) WEBRip 720p, HDTVRip 720p, WEBRip | L1

600 | 56

2.7 ГБ

В этой теме нет новых непрочитанных сообщений. Велоспорт. Чемпионат Мира на треке 2014 / World Championships Track 2014 (2014) WEBRip 720p

0 | 11

7.71 ГБ

В этой теме нет новых непрочитанных сообщений. Собчак живьём. Жора Крыжовников [эфир от 22.10.2014] (2014) WEBRip 720p

20 | 5

974.34 МБ

В этой теме нет новых непрочитанных сообщений. Силовой Экстрим. Strongman. World's Strongest Man 2014 [22-29.03] (2014) WEBRip 720p

0 | 0

4.37 ГБ

В этой теме нет новых непрочитанных сообщений. Собчак живьём. Николай Басков [эфир от 15.10.2014] (2014) WEBRip 720p

46 | 3

975.04 МБ

В этой теме нет новых непрочитанных сообщений. Собчак живьём. Сергей Минаев [эфир от 08.10.2014] (2014) WEBRip 720p

48 | 5

975.34 МБ

В этой теме нет новых непрочитанных сообщений. Собчак живьём. Александр Бородай [эфир от 12.11.2014] (2014) WEBRip 720p

81 | 2

1.72 ГБ




Вы не можете начинать темы
Вы не можете отвечать на сообщения
Вы не можете редактировать свои сообщения
Вы не можете удалять свои сообщения
Вы не можете добавлять вложения

Перейти:  
Для Мосгорсуда, Роскомнадзора и рекламодателей: mosgorsud-torrent[собачка]yandex.ru
 Вход
ppkBB3cker v.2 © 2008-2014 @ PPK
[ Time : 0.073s | 15 Queries | GZIP : Off ]

Торрент трекер RUTOR.IN, Не можете зайти на rutor.org? Какой новый адрес рутор? Какое зеркало рутор? Не работает rutor.org и зеркала? Тогда наш торрент специально для вас. Rutor.in неофициальное зеркало rutor. В случае если у Вас заблокирован rutor или вдруг Вы не можете на него зайти, то Вы без труда сможете скачать бесплатно и без рекламы последние новинки кино, игр, сериалов и прочего у нас, на Rutor.in. Не нужно использовать прокси, чтобы зайти на рутор, достаточно воспользоваться нашим ресурсом. Все новые фильмы, игры, сериалы, книги и музыка за 2013 и 2014 годы через торрент бесплатно. Скачивайте фильмы в хорошем качестве, игры для пк, xbox, playstation без регистрации. У нас вы найдете новые Зарубежные сериалы и Русские сериалы 2013, 2014, 2015 годов. Оставайтесь с нами, качайте любимые фильмы, игры, сериалы, книги и музыку.