img image001 image001 image001 image001 image001 image001 image001 image001 image001 image001 image001 image001 image001 image001 image001

Planets Sun Sun Sun
Статистика раздачи
Автор: Nickolas3434 | Размер: 57.79 ГБ | Добавлен: 14 авг 2014
Раздают: 0    Качают: 10
Скачать торрент
Скачать торрент
Описание торрента

СообщениеДобавлено: 14 авг 2014 

Дартс / World Matchplay 2014

Вид спорта: Дартс
Дата/Год выпуска: 21-27.07.14
Язык комментариев: английский, немецкий
Автор записи: SashaR.
Качество: DVB-S2 Remux
Формат видео: TS
Видео: AVC, 1920x1080, 16:9, 8 842 Kbps, 25 fps
Аудио: AC-3, 384 Kbps, 48.0 kHz, 2 channels
H:РаздачиWorld Matchplay 201421.07.14.ts
General #11
ID : 11 (0xB)
Complete name : H:РаздачиWorld Matchplay 201421.07.14.ts
Format : MPEG-TS
File size : 11.4 GiB
Duration : 2h 48mn
Overall bit rate mode : Variable
Overall bit rate : 9 710 Kbps
Video #1279
ID : 1279 (0x4FF)
Menu ID : 122 (0x7A)
Format : AVC
Format/Info : Advanced Video Codec
Format profile : High@L4.0
Format settings, CABAC : Yes
Format settings, ReFrames : 3 frames
Codec ID : 27
Duration : 2h 48mn
Bit rate : 8 842 Kbps
Width : 1 920 pixels
Height : 1 080 pixels
Display aspect ratio : 16:9
Frame rate : 25.000 fps
Standard : Component
Color space : YUV
Chroma subsampling : 4:2:0
Bit depth : 8 bits
Scan type : Interlaced
Scan order : Top Field First
Bits/(Pixel*Frame) : 0.171
Stream size : 10.4 GiB (91%)
Color primaries : BT.709
Transfer characteristics : BT.709
Matrix coefficients : BT.709
Audio #1283
ID : 1283 (0x503)
Menu ID : 122 (0x7A)
Format : AC-3
Format/Info : Audio Coding 3
Mode extension : CM (complete main)
Format settings, Endianness : Big
Codec ID : 6
Duration : 2h 48mn
Bit rate mode : Constant
Bit rate : 384 Kbps
Channel count : 2 channels
Channel positions : Front: L R
Sampling rate : 48.0 KHz
Bit depth : 16 bits
Compression mode : Lossy
Delay relative to video : 149ms
Stream size : 462 MiB (4%)
Language : German
Language, more info : Clean effects
21.07.14 - 02:48:23
22.07.14 - 03:09:40



   Похожие торренты   Торрент   Размер 
В этой теме нет новых непрочитанных сообщений. Дартс / BDO World Darts Championship 2013 [День 02-09] (2013) IPTVRip

0 | 1

18.56 ГБ

В этой теме нет новых непрочитанных сообщений. Автоспорт. World Touring Car Championship (WTCC) 2014. Этап 05. Salzburg. Гонки 1 и 2 (2014) DVB-S2 Remux

0 | 2

5.86 ГБ

В этой теме нет новых непрочитанных сообщений. Автоспорт. World Touring Car Championship (WTCC) 2014. Этап 06. Moscow. Квал. Гонки 1 и 2 (2014) DVB-S2 Remux

2 | 4

12.19 ГБ

В этой теме нет новых непрочитанных сообщений. Автоспорт. Verizon Indycar Series 2014. Этап 05. Indianapolis 500. Гонка (2014) DVB-S2 Remux 1080i

0 | 5

17.06 ГБ

В этой теме нет новых непрочитанных сообщений. Виктор / Viktor (2014) Blu-Ray Remux 1080i от ivandubskoj | RUS Transfer | D | Лицензия

18 | 4

19.14 ГБ

В этой теме нет новых непрочитанных сообщений. Тайная жизнь хищников / Secret Life of Predators (2014) 1080i BD-Remux

14 | 4

39.88 ГБ

В этой теме нет новых непрочитанных сообщений. National Geographic: Апокалипсис: Первая мировая война / Apocalypse: World War I [01-04 из 05] (2014) HDTV 1080i

12 | 34

13.21 ГБ




Вы не можете начинать темы
Вы не можете отвечать на сообщения
Вы не можете редактировать свои сообщения
Вы не можете удалять свои сообщения
Вы не можете добавлять вложения

Перейти:  
Для Мосгорсуда, Роскомнадзора и рекламодателей: mosgorsud-torrent[собачка]yandex.ru
 Вход
ppkBB3cker v.2 © 2008-2014 @ PPK
[ Time : 0.057s | 15 Queries | GZIP : Off ]

Торрент трекер RUTOR.IN, Не можете зайти на rutor.org? Какой новый адрес рутор? Какое зеркало рутор? Не работает rutor.org и зеркала? Тогда наш торрент специально для вас. Rutor.in неофициальное зеркало rutor. В случае если у Вас заблокирован rutor или вдруг Вы не можете на него зайти, то Вы без труда сможете скачать бесплатно и без рекламы последние новинки кино, игр, сериалов и прочего у нас, на Rutor.in. Не нужно использовать прокси, чтобы зайти на рутор, достаточно воспользоваться нашим ресурсом. Все новые фильмы, игры, сериалы, книги и музыка за 2013 и 2014 годы через торрент бесплатно. Скачивайте фильмы в хорошем качестве, игры для пк, xbox, playstation без регистрации. У нас вы найдете новые Зарубежные сериалы и Русские сериалы 2013, 2014, 2015 годов. Оставайтесь с нами, качайте любимые фильмы, игры, сериалы, книги и музыку.