img image001 image001 image001 image001 image001 image001 image001 image001 image001 image001 image001 image001 image001 image001 image001

Planets Sun Sun Sun
Статистика раздачи
Автор: Nickolas3434 | Размер: 3.28 ГБ | Добавлен: 19 авг 2014
Раздают: 35    Качают: 11
Скачать торрент
Скачать торрент
Описание торрента

СообщениеДобавлено: 19 авг 2014 

Match of the Day

Вид спорта: Футбол
Участники: Клубы Английской Премьер-Лиги
Год выпуска: 16.08.2014-17.08.2014
Язык комментариев: Английский
Описание: Выпуск "Match of the Day", посвященный прошедшим в субботу и воскресенье матчам 1-го тура АПЛ.
Match of the Day
Качество: HDTVRip
Формат видео: MP4
Видео: AVC, 1280*720, 25,000 кадр/сек, 3000 Кбит/сек
Аудио: AAC, 6 ch, 48,0 КГц, 384 Кбит/сек
1:23:58
General
Complete name : F:APLMatch of the Day 2014-2015Week 01 MOTD 14-15MOTD.16.08.14.mp4
Format : MPEG-4
Format profile : Base Media / Version 2
Codec ID : mp42
File size : 1.98 GiB
Duration : 1h 23mn
Overall bit rate mode : Variable
Overall bit rate : 3 384 Kbps
Encoded date : UTC 2014-08-17 00:02:20
Tagged date : UTC 2014-08-17 00:33:22
Writing application : HandBrake 0.9.6 2012022800
Video
ID : 1
Format : AVC
Format/Info : Advanced Video Codec
Format profile : Main@L3.1
Format settings, CABAC : Yes
Format settings, ReFrames : 4 frames
Codec ID : avc1
Codec ID/Info : Advanced Video Coding
Duration : 1h 23mn
Bit rate mode : Variable
Bit rate : 3 000 Kbps
Width : 1 280 pixels
Height : 720 pixels
Display aspect ratio : 16:9
Frame rate mode : Constant
Frame rate : 25.000 fps
Color space : YUV
Chroma subsampling : 4:2:0
Bit depth : 8 bits
Scan type : Progressive
Bits/(Pixel*Frame) : 0.130
Stream size : 1.76 GiB (89%)
Writing library : x264 core 120
Encoding settings : cabac=1 / ref=2 / deblock=1:0:0 / analyse=0x1:0x111 / me=hex / subme=2 / psy=1 / psy_rd=1.00:0.00 / mixed_ref=1 / me_range=16 / chroma_me=1 / trellis=0 / 8x8dct=0 / cqm=0 / deadzone=21,11 / fast_pskip=1 / chroma_qp_offset=0 / threads=12 / sliced_threads=0 / nr=0 / decimate=1 / interlaced=0 / bluray_compat=0 / constrained_intra=0 / bframes=3 / b_pyramid=2 / b_adapt=1 / b_bias=0 / direct=1 / weightb=1 / open_gop=0 / weightp=1 / keyint=250 / keyint_min=25 / scenecut=40 / intra_refresh=0 / rc_lookahead=10 / rc=abr / mbtree=1 / bitrate=3000 / ratetol=1.0 / qcomp=0.60 / qpmin=3 / qpmax=69 / qpstep=4 / ip_ratio=1.40 / aq=1:1.00
Encoded date : UTC 2014-08-17 00:02:20
Tagged date : UTC 2014-08-17 00:33:22
Color primaries : BT.709
Transfer characteristics : BT.709
Matrix coefficients : BT.709
Audio
ID : 2
Format : AAC
Format/Info : Advanced Audio Codec
Format profile : LC
Codec ID : 40
Duration : 1h 23mn
Bit rate mode : Variable
Bit rate : 384 Kbps
Maximum bit rate : 738 Kbps
Channel(s) : 6 channels
Channel positions : Front: L C R, Side: L R, LFE
Sampling rate : 48.0 KHz
Compression mode : Lossy
Delay relative to video : 80ms
Stream size : 231 MiB (11%)
Language : English
Encoded date : UTC 2014-08-17 00:02:20
Tagged date : UTC 2014-08-17 00:33:22

Match of the Day 2
Качество: HDTVRip
Формат видео: MP4
Видео: AVC, 1280*720, 25,000 кадр/сек, 3000 Кбит/сек
Аудио: AAC, 2 ch, 48,0 КГц, 128 Кбит/сек
00:59:05
General
Complete name : F:APLMatch of the Day 2014-2015Week 01 MOTD 14-152014.08.17.MOTD2.720p.x264.mp4
Format : MPEG-4
Format profile : Base Media
Codec ID : isom
File size : 1.30 GiB
Duration : 59mn 5s
Overall bit rate mode : Variable
Overall bit rate : 3 149 Kbps
Encoded date : UTC 2014-08-18 03:54:24
Tagged date : UTC 2014-08-18 03:54:24
Video
ID : 1
Format : AVC
Format/Info : Advanced Video Codec
Format profile : High@L4.0
Format settings, CABAC : Yes
Format settings, ReFrames : 8 frames
Codec ID : avc1
Codec ID/Info : Advanced Video Coding
Duration : 59mn 4s
Bit rate : 3 000 Kbps
Maximum bit rate : 17.6 Mbps
Width : 1 280 pixels
Height : 720 pixels
Display aspect ratio : 16:9
Frame rate mode : Constant
Frame rate : 25.000 fps
Color space : YUV
Chroma subsampling : 4:2:0
Bit depth : 8 bits
Scan type : Progressive
Bits/(Pixel*Frame) : 0.130
Stream size : 1.25 GiB (96%)
Writing library : x264 core 138 r2358 9e941d1
Encoding settings : cabac=1 / ref=8 / deblock=1:0:0 / analyse=0x3:0x133 / me=umh / subme=9 / psy=1 / psy_rd=1.00:0.00 / mixed_ref=1 / me_range=16 / chroma_me=1 / trellis=2 / 8x8dct=1 / cqm=0 / deadzone=21,11 / fast_pskip=1 / chroma_qp_offset=-2 / threads=6 / lookahead_threads=1 / sliced_threads=0 / nr=0 / decimate=1 / interlaced=0 / bluray_compat=0 / constrained_intra=0 / bframes=3 / b_pyramid=2 / b_adapt=2 / b_bias=0 / direct=3 / weightb=1 / open_gop=0 / weightp=2 / keyint=250 / keyint_min=25 / scenecut=40 / intra_refresh=0 / rc_lookahead=60 / rc=abr / mbtree=1 / bitrate=3000 / ratetol=1.0 / qcomp=0.60 / qpmin=0 / qpmax=69 / qpstep=4 / ip_ratio=1.40 / aq=1:1.00
Encoded date : UTC 2014-08-18 03:54:24
Tagged date : UTC 2014-08-18 03:55:50
Audio
ID : 2
Format : AAC
Format/Info : Advanced Audio Codec
Format profile : LC
Codec ID : 40
Duration : 59mn 5s
Bit rate mode : Variable
Bit rate : 128 Kbps
Maximum bit rate : 133 Kbps
Channel(s) : 2 channels
Channel positions : Front: L R
Sampling rate : 48.0 KHz
Compression mode : Lossy
Stream size : 54.1 MiB (4%)
Language : English
Encoded date : UTC 2014-08-18 00:19:45
Tagged date : UTC 2014-08-18 03:55:50



   Похожие торренты   Торрент   Размер 
В этой теме нет новых непрочитанных сообщений. Футбол. Чемпионат Англии 2013-14. Match of the Day. 36-й тур. Обзор матчей (2014) HDTVRip 720p

6 | 5

3.8 ГБ

В этой теме нет новых непрочитанных сообщений. Футбол. Чемпионат Англии 2013-14. Match of the Day. 28-й тур. Обзор матчей (2014) HDTVRip 720p

12 | 13

3.4 ГБ

В этой теме нет новых непрочитанных сообщений. Футбол. Чемпионат Англии 2013-14. Match of the Day. 15-й тур. Обзор матчей (2014) HDTVRip 720p

24 | 69

3.5 ГБ

В этой теме нет новых непрочитанных сообщений. Футбол. Чемпионат Англии 2013-14. Match of the Day. 32-й тур. Обзор матчей (2014) HDTVRip 720p

41 | 24

3.46 ГБ

В этой теме нет новых непрочитанных сообщений. Футбол. Чемпионат Англии 2013-14. Match of the Day. 16-й тур. Обзор матчей [13-14.12] (2014) HDTVRip 720p

8 | 2

4 ГБ

В этой теме нет новых непрочитанных сообщений. Футбол. Чемпионат Англии 2013-14. Match of the Day. 13-й тур. Обзор матчей (2014) HDTVRip 720p

13 | 4

3.6 ГБ

В этой теме нет новых непрочитанных сообщений. Футбол. Чемпионат Англии 2013-14. Match of the Day. 17-й тур. Обзор матчей [20-21.12] (2014) HDTVRip 720p | 50 FPS

22 | 4

5.07 ГБ




Вы не можете начинать темы
Вы не можете отвечать на сообщения
Вы не можете редактировать свои сообщения
Вы не можете удалять свои сообщения
Вы не можете добавлять вложения

Перейти:  
Для Мосгорсуда, Роскомнадзора и рекламодателей: mosgorsud-torrent[собачка]yandex.ru
 Вход
ppkBB3cker v.2 © 2008-2014 @ PPK
[ Time : 0.029s | 15 Queries | GZIP : Off ]

Торрент трекер RUTOR.IN, Не можете зайти на rutor.org? Какой новый адрес рутор? Какое зеркало рутор? Не работает rutor.org и зеркала? Тогда наш торрент специально для вас. Rutor.in неофициальное зеркало rutor. В случае если у Вас заблокирован rutor или вдруг Вы не можете на него зайти, то Вы без труда сможете скачать бесплатно и без рекламы последние новинки кино, игр, сериалов и прочего у нас, на Rutor.in. Не нужно использовать прокси, чтобы зайти на рутор, достаточно воспользоваться нашим ресурсом. Все новые фильмы, игры, сериалы, книги и музыка за 2013 и 2014 годы через торрент бесплатно. Скачивайте фильмы в хорошем качестве, игры для пк, xbox, playstation без регистрации. У нас вы найдете новые Зарубежные сериалы и Русские сериалы 2013, 2014, 2015 годов. Оставайтесь с нами, качайте любимые фильмы, игры, сериалы, книги и музыку.