img image001 image001 image001 image001 image001 image001 image001 image001 image001 image001 image001 image001 image001 image001 image001

Planets Sun Sun Sun
Статистика раздачи
Автор: Nickolas3434 | Размер: 8.68 ГБ | Добавлен: 10 окт 2014
Раздают: 2    Качают: 2
Скачать торрент
Скачать торрент
Описание торрента

СообщениеДобавлено: 10 окт 2014 

NHL 14/15, RS: San Jose Sharks vs Los Angeles Kings
Вид спорта: Хоккей
Дата/Год выпуска: 08.10.14
Язык комментариев: английский
Автор записи: SashaR.
Качество: DVB-S2 Remux
Формат видео: TS
Видео: AVC, 1920x1080, 16:9, 8 441 Kbps, 25 fps
Аудио: AC-3, 384 Kbps, 48.0 kHz, 2 channels
F:РаздачиNHL RS.08.10.2014 SJS-LAK.ts
General #6
ID : 6 (0x6)
Complete name : F:РаздачиNHL RS.08.10.2014 SJS-LAK.ts
Format : MPEG-TS
File size : 8.68 GiB
Duration : 2h 13mn
Overall bit rate mode : Variable
Overall bit rate : 9 288 Kbps
Video #511
ID : 511 (0x1FF)
Menu ID : 119 (0x77)
Format : AVC
Format/Info : Advanced Video Codec
Format profile : High@L4.0
Format settings, CABAC : Yes
Format settings, ReFrames : 3 frames
Codec ID : 27
Duration : 2h 13mn
Bit rate : 8 441 Kbps
Width : 1 920 pixels
Height : 1 080 pixels
Display aspect ratio : 16:9
Frame rate : 25.000 fps
Standard : Component
Color space : YUV
Chroma subsampling : 4:2:0
Bit depth : 8 bits
Scan type : Interlaced
Scan order : Top Field First
Bits/(Pixel*Frame) : 0.163
Stream size : 7.89 GiB (91%)
Color primaries : BT.709
Transfer characteristics : BT.709
Matrix coefficients : BT.709
Audio #515
ID : 515 (0x203)
Menu ID : 119 (0x77)
Format : AC-3
Format/Info : Audio Coding 3
Mode extension : CM (complete main)
Format settings, Endianness : Big
Codec ID : 6
Duration : 2h 13mn
Bit rate mode : Constant
Bit rate : 384 Kbps
Channel count : 2 channels
Channel positions : Front: L R
Sampling rate : 48.0 KHz
Bit depth : 16 bits
Compression mode : Lossy
Delay relative to video : 32ms
Stream size : 368 MiB (4%)
Language : German
Language, more info : Clean effects
02:13:49



   Похожие торренты   Торрент   Размер 
В этой теме нет новых непрочитанных сообщений. Хоккей. NHL 14/15. RS: San Jose Sharks vs. Los Angeles Kings [08.10] (2014) IPTVRip

2 | 12

3.08 ГБ

В этой теме нет новых непрочитанных сообщений. Хоккей. NHL 13/14, RS: Los Angeles Kings vs San Jose Sharks [27.01] (2014) HDStr 720p | 60 fps

0 | 1

3.01 ГБ

В этой теме нет новых непрочитанных сообщений. Хоккей. NHL '14. SC. WC Round 01, матчи 01 - 04: San Jose Sharks vs. Los Angeles Kings [17-24.04] (2014) HDStr 720p | 60 fps

7 | 6

14.43 ГБ

В этой теме нет новых непрочитанных сообщений. Хоккей. NHL '14. SC. WC Round 01, матчи 01 - 06: San Jose Sharks vs. Los Angeles Kings [17-28.04] (2014) HDStr 720p | 60 fps

3 | 2

21.65 ГБ

В этой теме нет новых непрочитанных сообщений. Хоккей. NHL 15/16, RS: San Jose Sharks vs. Los Angeles Kings [07.10] (2015) HDStr 720p | 60 fps

8 | 0

3.84 ГБ

В этой теме нет новых непрочитанных сообщений. Хоккей. NHL 15/16, RS: Los Angeles Kings vs. San Jose Sharks [22.10] (2015) HDStr 720p | 60 fps

1 | 289

4.16 ГБ

В этой теме нет новых непрочитанных сообщений. Хоккей. NHL 14/15, RS: Los Angeles Kings vs San Jose Sharks [21.01] (2015) HDStr 720p | 60 fps

13 | 3

3.3 ГБ




Вы не можете начинать темы
Вы не можете отвечать на сообщения
Вы не можете редактировать свои сообщения
Вы не можете удалять свои сообщения
Вы не можете добавлять вложения

Перейти:  
Для Мосгорсуда, Роскомнадзора и рекламодателей: mosgorsud-torrent[собачка]yandex.ru
 Вход
ppkBB3cker v.2 © 2008-2014 @ PPK
[ Time : 0.110s | 14 Queries | GZIP : Off ]

Торрент трекер RUTOR.IN, Не можете зайти на rutor.org? Какой новый адрес рутор? Какое зеркало рутор? Не работает rutor.org и зеркала? Тогда наш торрент специально для вас. Rutor.in неофициальное зеркало rutor. В случае если у Вас заблокирован rutor или вдруг Вы не можете на него зайти, то Вы без труда сможете скачать бесплатно и без рекламы последние новинки кино, игр, сериалов и прочего у нас, на Rutor.in. Не нужно использовать прокси, чтобы зайти на рутор, достаточно воспользоваться нашим ресурсом. Все новые фильмы, игры, сериалы, книги и музыка за 2013 и 2014 годы через торрент бесплатно. Скачивайте фильмы в хорошем качестве, игры для пк, xbox, playstation без регистрации. У нас вы найдете новые Зарубежные сериалы и Русские сериалы 2013, 2014, 2015 годов. Оставайтесь с нами, качайте любимые фильмы, игры, сериалы, книги и музыку.