img image001 image001 image001 image001 image001 image001 image001 image001 image001 image001 image001 image001 image001 image001 image001

Planets Sun Sun Sun
Статистика раздачи
Автор: Nickolas3434 | Размер: 26.75 ГБ | Добавлен: 01 ноя 2014
Раздают: 7    Качают: 15
Скачать торрент
Скачать торрент
Описание торрента

СообщениеДобавлено: 01 ноя 2014 

2014 Гран-При Skate America
Вид спорта: Фигурное катание
Дата/Год выпуска: 24.10.2014-26.10.2014
Телеканал: СПОРТ
Язык комментариев: русский (Николай Попов, Александр Гришин)
Описание: Первый этап Гран-При сезона 2014-2015. Проходил в Чикаго с 24 по 26 октября.
Автор записи: AldarEl
Доп. информация:
Показательные выступления не полностью! Не хватает записи выступления Джеймса Брауна
Характеристики видео:
Запись с канала СПОРТ (НТВ+). Запись не пережата, в контейнере mkv записаны оригинальные потоки. В каждом файле подрезаны начало и конец, чтобы убрать лишнюю рекламу.
Качество: SATRip
Формат видео: MKV
Видео: mpeg2, 720x576, 25.00 fps, 4:3, PAL, ~4500 kbps (vbr)
Аудио: mpeg1, stereo, 48 kHz, 192 kbps
Составы
Продолжительность
01:06 + 02:05
01:23 + 00:00Спортивные пары00:58 + 00:00
01:34 + 01:17
00:00
2014.SkateAmerica.IceDance.ShortDance.SPORT.576i.mkvGeneral
Unique ID : 215650645443528580657846047116050576427 (0xA23CCDB60469C200A2C41B445994342B)
Complete name : D:Temp2014 skate america2014.SkateAmerica.IceDance.ShortDance.SPORT.576i.mkv
Format : Matroska
Format version : Version 4 / Version 2
File size : 2.36 GiB
Duration : 1h 6mn
Overall bit rate mode : Variable
Overall bit rate : 5 082 Kbps
Movie name : 2014 Skate America Ice Dance Short Dance
Encoded date : UTC 2014-10-25 08:51:15
Writing application : mkvmerge v7.2.0 ('On Every Street') 64bit built on Sep 13 2014 15:52:10
Writing library : libebml v1.3.0 + libmatroska v1.4.1
Original source form : TV
DATE_BROADCASTED : 2014-10-25 06:00:00
TVCHANNEL : СПОРТ
SUMMARY : - Гран-при США. Танцы. Короткая программа. Прямая трансляция
Video
ID : 1
Format : MPEG Video
Format version : Version 2
Format profile : Main@Main
Format settings, BVOP : No
Format settings, Matrix : Custom
Codec ID : V_MPEG2
Codec ID/Info : MPEG 1 or 2 Video
Duration : 1h 6mn
Bit rate mode : Variable
Bit rate : 4 789 Kbps
Maximum bit rate : 15.0 Mbps
Width : 720 pixels
Height : 576 pixels
Display aspect ratio : 4:3
Frame rate mode : Constant
Frame rate : 25.000 fps
Standard : PAL
Color space : YUV
Chroma subsampling : 4:2:0
Bit depth : 8 bits
Scan type : Interlaced
Scan order : Top Field First
Compression mode : Lossy
Bits/(Pixel*Frame) : 0.462
Stream size : 2.23 GiB (94%)
Language : English
Default : Yes
Forced : No
DURATION : 01:06:31.960000000
NUMBER_OF_FRAMES : 99799
NUMBER_OF_BYTES : 2438962935
_STATISTICS_WRITING_APP : mkvmerge v7.2.0 ('On Every Street') 64bit built on Sep 13 2014 15:52:10
_STATISTICS_WRITING_DATE_UTC : 2014-10-25 08:51:15
_STATISTICS_TAGS : BPS DURATION NUMBER_OF_FRAMES NUMBER_OF_BYTES
Audio
ID : 2
Format : MPEG Audio
Format version : Version 1
Format profile : Layer 2
Codec ID : A_MPEG/L2
Codec ID/Hint : MP2
Duration : 1h 6mn
Bit rate mode : Constant
Bit rate : 192 Kbps
Channel(s) : 2 channels
Sampling rate : 48.0 KHz
Compression mode : Lossy
Delay relative to video : 12ms
Stream size : 91.4 MiB (4%)
Language : Russian
Default : Yes
Forced : No
DURATION : 01:06:31.968000000
NUMBER_OF_FRAMES : 166332
NUMBER_OF_BYTES : 95807232
_STATISTICS_WRITING_APP : mkvmerge v7.2.0 ('On Every Street') 64bit built on Sep 13 2014 15:52:10
_STATISTICS_WRITING_DATE_UTC : 2014-10-25 08:51:15
_STATISTICS_TAGS : BPS DURATION NUMBER_OF_FRAMES NUMBER_OF_BYTES2014.SkateAmerica.Men.ShortProgram.SPORT.576i.mkvGeneral
Unique ID : 247869651364698217963351035045392992795 (0xBA79F558D6847BEDB11D4DA18D28CA1B)
Complete name : D:Temp2014 skate america2014.SkateAmerica.Men.ShortProgram.SPORT.576i.mkv
Format : Matroska
Format version : Version 4 / Version 2
File size : 3.18 GiB
Duration : 1h 34mn
Overall bit rate mode : Variable
Overall bit rate : 4 810 Kbps
Movie name : 2014 Skate America Men Short Program
Encoded date : UTC 2014-10-25 08:53:58
Writing application : mkvmerge v7.2.0 ('On Every Street') 64bit built on Sep 13 2014 15:52:10
Writing library : libebml v1.3.0 + libmatroska v1.4.1
Original source form : TV
DATE_BROADCASTED : 2014-10-25 07:20:00
TVCHANNEL : СПОРТ
SUMMARY : - Гран-при США. Мужчины. Короткая программа. Прямая трансляция
Video
ID : 1
Format : MPEG Video
Format version : Version 2
Format profile : Main@Main
Format settings, BVOP : No
Format settings, Matrix : Custom
Codec ID : V_MPEG2
Codec ID/Info : MPEG 1 or 2 Video
Duration : 1h 34mn
Bit rate mode : Variable
Bit rate : 4 522 Kbps
Maximum bit rate : 15.0 Mbps
Width : 720 pixels
Height : 576 pixels
Display aspect ratio : 4:3
Frame rate mode : Constant
Frame rate : 25.000 fps
Standard : PAL
Color space : YUV
Chroma subsampling : 4:2:0
Bit depth : 8 bits
Scan type : Interlaced
Scan order : Top Field First
Compression mode : Lossy
Bits/(Pixel*Frame) : 0.436
Stream size : 2.99 GiB (94%)
Language : English
Default : Yes
Forced : No
DURATION : 01:34:32.600000000
NUMBER_OF_FRAMES : 141815
NUMBER_OF_BYTES : 3273184478
_STATISTICS_WRITING_APP : mkvmerge v7.2.0 ('On Every Street') 64bit built on Sep 13 2014 15:52:10
_STATISTICS_WRITING_DATE_UTC : 2014-10-25 08:53:58
_STATISTICS_TAGS : BPS DURATION NUMBER_OF_FRAMES NUMBER_OF_BYTES
Audio
ID : 2
Format : MPEG Audio
Format version : Version 1
Format profile : Layer 2
Codec ID : A_MPEG/L2
Codec ID/Hint : MP2
Duration : 1h 34mn
Bit rate mode : Constant
Bit rate : 192 Kbps
Channel(s) : 2 channels
Sampling rate : 48.0 KHz
Compression mode : Lossy
Delay relative to video : 20ms
Stream size : 130 MiB (4%)
Language : Russian
Default : Yes
Forced : No
DURATION : 01:34:32.592000000
NUMBER_OF_FRAMES : 236358
NUMBER_OF_BYTES : 136142208
_STATISTICS_WRITING_APP : mkvmerge v7.2.0 ('On Every Street') 64bit built on Sep 13 2014 15:52:10
_STATISTICS_WRITING_DATE_UTC : 2014-10-25 08:53:58
_STATISTICS_TAGS : BPS DURATION NUMBER_OF_FRAMES NUMBER_OF_BYTES

Итоговые результаты

25 октября
Короткие программы мужчин и танцевальных пар.
26 октября
Добавлены короткие программы женщин и спортивных пар, произвольные программы мужчин и танцевальных пар.
+ церемония награждения мужчин
27 октября
Добавлены произвольные программы женщин и спортивных пар, показательные выступления
(+ церемония награждения женщин)
Обновлений в раздаче не ожидается.



   Похожие торренты   Торрент   Размер 
В этой теме нет новых непрочитанных сообщений. Фигурное катание. 2016 Skate America / Гран-при США [21-23.10] (2016) HDTV 1080i

0 | 0

20.75 ГБ

В этой теме нет новых непрочитанных сообщений. Фигурное катание. 2016 Skate America / Гран-при США [21-23.10] (2016) HDTV 1080i

0 | 0

24.5 ГБ

В этой теме нет новых непрочитанных сообщений. Фигурное катание. 2012/2013 Гран-при Skate America (Кент, США) [20-21.10] (2012) SATRemux

1 | 2

11.02 ГБ

В этой теме нет новых непрочитанных сообщений. Фигурное катание. 2013 Гран-при "Skate America" (2013) IPTVRip

0 | 2

8.64 ГБ

В этой теме нет новых непрочитанных сообщений. Фигурное катание. 2013 Гран-при "Skate Canada" (2013) IPTVRip

0 | 2

10.5 ГБ

В этой теме нет новых непрочитанных сообщений. Фигурное катание. Гран-при Китая - 2014 / 2014 Lexus Cup of China (2014) HDTV 1080i

11 | 10

41.29 ГБ

В этой теме нет новых непрочитанных сообщений. Фигурное катание. Гран-при Китая - 2014 / 2014 Lexus Cup of China (2014) HDTVRip

24 | 15

11.61 ГБ




Вы не можете начинать темы
Вы не можете отвечать на сообщения
Вы не можете редактировать свои сообщения
Вы не можете удалять свои сообщения
Вы не можете добавлять вложения

Перейти:  
Для Мосгорсуда, Роскомнадзора и рекламодателей: mosgorsud-torrent[собачка]yandex.ru
 Вход
ppkBB3cker v.2 © 2008-2014 @ PPK
[ Time : 0.048s | 17 Queries | GZIP : Off ]

cron