img image001 image001 image001 image001 image001 image001 image001 image001 image001 image001 image001 image001 image001 image001 image001

Planets Sun Sun Sun
Статистика раздачи
Автор: Nickolas3434 | Размер: 41.29 ГБ | Добавлен: 12 ноя 2014
Раздают: 11    Качают: 10
Скачать торрент
Скачать торрент
Описание торрента

СообщениеДобавлено: 12 ноя 2014 

Название: Фигурное катание. Этап серии Гран-при Китая - 2014
Оригинальное название: 2014 Lexus Cup of China
Год выпуска: 2014
Жанр: Спорт, фигурное катание
Выпущено: Россия / EuroSport 2 HD
Комментаторы: Александр Гришин, Андрей Журанков, Максим Ставиский
Описание: Фигурное катание. Гран-при. Третий этап. 2014 Lexus Cup of China (Шанхай, Китай).
Формат: TS
Качество: HDTV 1080i
Видео: MPEG-4 AVC, ~ 7000 Кбит/с, 1920х1080, 25.000 кадр/с
Аудио #1: Русский (MP2, 2 ch, 192 Кбит/с)
Аудио #2: Английский (MP2, 2 ch, 192 Кбит/с)
Продолжительность: 12:44:47
1.) Короткая программа. Женщины / Women.Short.program. Комментатор: Александр Гришин. Продолжительность: 01:22:55
2.) Короткая программа. Мужчины / Men.Short.program. Комментатор: Александр Гришин. Продолжительность: 01:20:52
3.) Короткая программа. Пары / Sports.pairs.Short.program. Комментатор: Андрей Журанков. Продолжительность: 01:00:38
4.) Короткий танец. Танцы на льду / Ice.dance.Short.dance. Комментаторы: Александр Гришин, Максим Ставиский. Продолжительность: 01:01:22
5.) Произвольная программа. Женщины / Women.Free.skating. Комментаторы: Андрей Журанков, Максим Ставиский. Продолжительность: 01:38:27
6.) Произвольная программа. Мужчины / Men.Free.skating. Комментаторы: Андрей Журанков, Максим Ставиский. Продолжительность: 01:55:48
7.) Произвольный танец. Танцы на льду / Ice.dance.Free.dance. Комментаторы: Андрей Журанков, Максим Ставиский. Продолжительность: 01:12:47
8.) Произвольная программа. Пары / Sports.pairs.Free.skating. Комментатор: Андрей Журанков. Продолжительность: 01:00:08
9.) Показательные выступления / ExhibitionGala. Комментатор: Андрей Журанков. Продолжительность: 02:03:50
General
ID : 1 (0x1)
Complete name : D:Lexus.Cup.of.China(2014.Eurosport-2.HD)AVC.HDTV.1080i1.)Women.Short.program.ts
Format : MPEG-TS
File size : 4.53 GiB
Duration : 1h 22mn
Overall bit rate mode : Variable
Overall bit rate : 7 816 Kbps
Video
ID : 4141 (0x102D)
Menu ID : 1 (0x1)
Format : AVC
Format/Info : Advanced Video Codec
Format profile : High@L4.0
Format settings, CABAC : Yes
Format settings, ReFrames : 4 frames
Codec ID : 27
Duration : 1h 22mn
Bit rate : 7 042 Kbps
Width : 1 920 pixels
Height : 1 080 pixels
Display aspect ratio : 16:9
Frame rate : 25.000 fps
Standard : Component
Color space : YUV
Chroma subsampling : 4:2:0
Bit depth : 8 bits
Scan type : Interlaced
Scan order : Top Field First
Bits/(Pixel*Frame) : 0.136
Stream size : 4.08 GiB (90%)
Color primaries : BT.709
Transfer characteristics : BT.709
Matrix coefficients : BT.709
Audio #1
ID : 4144 (0x1030)
Menu ID : 1 (0x1)
Format : MPEG Audio
Format version : Version 1
Format profile : Layer 2
Codec ID : 3
Duration : 1h 22mn
Bit rate mode : Constant
Bit rate : 192 Kbps
Channel count : 2 channels
Sampling rate : 48.0 KHz
Compression mode : Lossy
Stream size : 114 MiB (2%)
Language : English
Audio #2
ID : 4145 (0x1031)
Menu ID : 1 (0x1)
Format : MPEG Audio
Format version : Version 1
Format profile : Layer 2
Codec ID : 3
Duration : 1h 22mn
Bit rate mode : Constant
Bit rate : 192 Kbps
Channel count : 2 channels
Sampling rate : 48.0 KHz
Compression mode : Lossy
Stream size : 114 MiB (2%)
Language : Russian




Автор рипа/записи: irqawert



   Похожие торренты   Торрент   Размер 
В этой теме нет новых непрочитанных сообщений. Фигурное катание. Гран-при Китая - 2014 / 2014 Lexus Cup of China (2014) HDTVRip

24 | 15

11.61 ГБ

В этой теме нет новых непрочитанных сообщений. Формула-1. Гран-при Китая [Россия 2] (2014) HDTV 1080i

222 | 56

9.89 ГБ

В этой теме нет новых непрочитанных сообщений. Фигурное катание. 2014 Гран-При Skate America (2014) SATRip

7 | 15

26.75 ГБ

В этой теме нет новых непрочитанных сообщений. Формула 1. Этап 4. Гран-при Китая. 1-ая практика (2014) HDTV 1080i

44 | 10

7.16 ГБ

В этой теме нет новых непрочитанных сообщений. Формула 1: Гран-При Китая. Квалификация. 4 этап [Спорт 1] (2014) HDTV 1080i от MediaClub

119 | 22

8.66 ГБ

В этой теме нет новых непрочитанных сообщений. XXII Зимние Олимпийские игры. Фигурное катание. Командные соревнования [Спорт 1 HD] [06.02] (2014) HDTV 1080i

0 | 2

17.86 ГБ

В этой теме нет новых непрочитанных сообщений. XXII зимние Олимпийские игры. Фигурное катание. Женщины. Произвольная программа [ARD HD] [20.02] (2014) HDTV 1080i

490 | 562

6.8 ГБ




Вы не можете начинать темы
Вы не можете отвечать на сообщения
Вы не можете редактировать свои сообщения
Вы не можете удалять свои сообщения
Вы не можете добавлять вложения

Перейти:  
Для Мосгорсуда, Роскомнадзора и рекламодателей: mosgorsud-torrent[собачка]yandex.ru
 Вход
ppkBB3cker v.2 © 2008-2014 @ PPK
[ Time : 0.381s | 17 Queries | GZIP : Off ]

Торрент трекер RUTOR.IN, Не можете зайти на rutor.org? Какой новый адрес рутор? Какое зеркало рутор? Не работает rutor.org и зеркала? Тогда наш торрент специально для вас. Rutor.in неофициальное зеркало rutor. В случае если у Вас заблокирован rutor или вдруг Вы не можете на него зайти, то Вы без труда сможете скачать бесплатно и без рекламы последние новинки кино, игр, сериалов и прочего у нас, на Rutor.in. Не нужно использовать прокси, чтобы зайти на рутор, достаточно воспользоваться нашим ресурсом. Все новые фильмы, игры, сериалы, книги и музыка за 2013 и 2014 годы через торрент бесплатно. Скачивайте фильмы в хорошем качестве, игры для пк, xbox, playstation без регистрации. У нас вы найдете новые Зарубежные сериалы и Русские сериалы 2013, 2014, 2015 годов. Оставайтесь с нами, качайте любимые фильмы, игры, сериалы, книги и музыку.