img image001 image001 image001 image001 image001 image001 image001 image001 image001 image001 image001 image001 image001 image001 image001

Planets Sun Sun Sun
Статистика раздачи
Автор: Nickolas3434 | Размер: 3.6 ГБ | Добавлен: 03 дек 2014
Раздают: 13    Качают: 4
Скачать торрент
Скачать торрент
Описание торрента

СообщениеДобавлено: 03 дек 2014 

Match of the Day


Вид спорта: Футбол
Участники: Клубы Английской Премьер-Лиги
Год выпуска: 29.11.2014-30.11.2014
Язык комментариев: Английский
Описание: Выпуск "Match of the Day", посвященный прошедшим матчам 13-го тура АПЛ.

Автор рипа: FTP
Качество: HDTVRip
Формат видео: MKV
Видео: AVC, 1280*720, 25,000 fps, 3136 Kbps
Аудио: AC3, 6 ch, 48,0 KHz, 384 Kbps
1:29:01 + 0:59:01
General
Unique ID : 203007958015584870566680407915792390480 (0x98B9E9186F96D159B477BE4606035950)
Complete name : F:APLMatch of the Day 2014-2015Week 13 MOTD 14-15match.of.the.day.2014.11.29.720p.hdtv.x264-ftp.mkv
Format : Matroska
Format version : Version 2
File size : 2.11 GiB
Duration : 1h 29mn
Overall bit rate : 3 389 Kbps
Encoded date : UTC 2014-11-30 01:12:09
Writing application : mkvmerge v5.8.0 ('No Sleep / Pillow') built on Sep 2 2012 15:37:04
Writing library : libebml v1.2.3 + libmatroska v1.3.0

Video
ID : 1
Format : AVC
Format/Info : Advanced Video Codec
Format profile : High@L4.1
Format settings, CABAC : Yes
Format settings, ReFrames : 5 frames
Codec ID : V_MPEG4/ISO/AVC
Duration : 1h 29mn
Bit rate : 2 938 Kbps
Width : 1 280 pixels
Height : 720 pixels
Display aspect ratio : 16:9
Frame rate mode : Constant
Frame rate : 25.000 fps
Color space : YUV
Chroma subsampling : 4:2:0
Bit depth : 8 bits
Scan type : Progressive
Bits/(Pixel*Frame) : 0.128
Stream size : 1.83 GiB (87%)
Writing library : x264 core 142 r2491 24e4fed
Encoding settings : cabac=1 / ref=5 / deblock=1:0:0 / analyse=0x3:0x113 / me=umh / subme=8 / psy=1 / psy_rd=1.00:0.00 / mixed_ref=1 / me_range=16 / chroma_me=1 / trellis=1 / 8x8dct=1 / cqm=0 / deadzone=21,11 / fast_pskip=1 / chroma_qp_offset=-2 / threads=12 / lookahead_threads=2 / sliced_threads=0 / nr=0 / decimate=1 / interlaced=0 / bluray_compat=0 / constrained_intra=0 / bframes=3 / b_pyramid=2 / b_adapt=2 / b_bias=0 / direct=3 / weightb=1 / open_gop=0 / weightp=2 / keyint=250 / keyint_min=25 / scenecut=40 / intra_refresh=0 / rc_lookahead=50 / rc=crf / mbtree=1 / crf=23.0 / qcomp=0.60 / qpmin=0 / qpmax=69 / qpstep=4 / ip_ratio=1.40 / aq=1:1.00
Default : Yes
Forced : No

Audio
ID : 2
Format : AC-3
Format/Info : Audio Coding 3
Mode extension : CM (complete main)
Format settings, Endianness : Big
Codec ID : A_AC3
Duration : 1h 29mn
Bit rate mode : Constant
Bit rate : 384 Kbps
Channel(s) : 6 channels
Channel positions : Front: L C R, Side: L R, LFE
Sampling rate : 48.0 KHz
Bit depth : 16 bits
Compression mode : Lossy
Stream size : 245 MiB (11%)
Title : English
Language : English
Default : Yes
Forced : No

General
Unique ID : 187775344916617495687397771634608723548 (0x8D4437491B13B62196B4BA4C8C50565C)
Complete name : F:APLMatch of the Day 2014-2015Week 13 MOTD 14-15match.of.the.day.two.2014.11.30.720p.hdtv.x264-ftp.mkv
Format : Matroska
Format version : Version 2
File size : 1.49 GiB
Duration : 59mn 1s
Overall bit rate : 3 620 Kbps
Encoded date : UTC 2014-12-01 00:47:39
Writing application : mkvmerge v5.8.0 ('No Sleep / Pillow') built on Sep 2 2012 15:37:04
Writing library : libebml v1.2.3 + libmatroska v1.3.0

Video
ID : 1
Format : AVC
Format/Info : Advanced Video Codec
Format profile : High@L4.1
Format settings, CABAC : Yes
Format settings, ReFrames : 5 frames
Codec ID : V_MPEG4/ISO/AVC
Duration : 59mn 1s
Bit rate : 3 164 Kbps
Width : 1 280 pixels
Height : 720 pixels
Display aspect ratio : 16:9
Frame rate mode : Constant
Frame rate : 25.000 fps
Color space : YUV
Chroma subsampling : 4:2:0
Bit depth : 8 bits
Scan type : Progressive
Bits/(Pixel*Frame) : 0.137
Stream size : 1.30 GiB (87%)
Writing library : x264 core 142 r2491 24e4fed
Encoding settings : cabac=1 / ref=5 / deblock=1:0:0 / analyse=0x3:0x113 / me=umh / subme=8 / psy=1 / psy_rd=1.00:0.00 / mixed_ref=1 / me_range=16 / chroma_me=1 / trellis=1 / 8x8dct=1 / cqm=0 / deadzone=21,11 / fast_pskip=1 / chroma_qp_offset=-2 / threads=12 / lookahead_threads=2 / sliced_threads=0 / nr=0 / decimate=1 / interlaced=0 / bluray_compat=0 / constrained_intra=0 / bframes=3 / b_pyramid=2 / b_adapt=2 / b_bias=0 / direct=3 / weightb=1 / open_gop=0 / weightp=2 / keyint=250 / keyint_min=25 / scenecut=40 / intra_refresh=0 / rc_lookahead=50 / rc=crf / mbtree=1 / crf=23.0 / qcomp=0.60 / qpmin=0 / qpmax=69 / qpstep=4 / ip_ratio=1.40 / aq=1:1.00
Default : Yes
Forced : No

Audio
ID : 2
Format : AC-3
Format/Info : Audio Coding 3
Mode extension : CM (complete main)
Format settings, Endianness : Big
Codec ID : A_AC3
Duration : 59mn 1s
Bit rate mode : Constant
Bit rate : 384 Kbps
Channel(s) : 6 channels
Channel positions : Front: L C R, Side: L R, LFE
Sampling rate : 48.0 KHz
Bit depth : 16 bits
Compression mode : Lossy
Stream size : 162 MiB (11%)
Title : English
Language : English
Default : Yes
Forced : No



   Похожие торренты   Торрент   Размер 
В этой теме нет новых непрочитанных сообщений. Футбол. Чемпионат Англии 2013-14. Match of the Day. 36-й тур. Обзор матчей (2014) HDTVRip 720p

6 | 5

3.8 ГБ

В этой теме нет новых непрочитанных сообщений. Футбол. Чемпионат Англии 2013-14. Match of the Day. 28-й тур. Обзор матчей (2014) HDTVRip 720p

12 | 13

3.4 ГБ

В этой теме нет новых непрочитанных сообщений. Футбол. Чемпионат Англии 2013-14. Match of the Day. 15-й тур. Обзор матчей (2014) HDTVRip 720p

24 | 69

3.5 ГБ

В этой теме нет новых непрочитанных сообщений. Футбол. Чемпионат Англии 2013-14. Match of the Day. 32-й тур. Обзор матчей (2014) HDTVRip 720p

41 | 24

3.46 ГБ

В этой теме нет новых непрочитанных сообщений. Футбол. Чемпионат Англии 2013-14. Match of the Day. 16-й тур. Обзор матчей [13-14.12] (2014) HDTVRip 720p

8 | 2

4 ГБ

В этой теме нет новых непрочитанных сообщений. Футбол. Чемпионат Англии 2013-14. Match of the Day. 17-й тур. Обзор матчей [20-21.12] (2014) HDTVRip 720p | 50 FPS

22 | 4

5.07 ГБ

В этой теме нет новых непрочитанных сообщений. Футбол. Чемпионат Англии 2013-14. Match of the Day. 01-й тур. Обзор матчей (2014) HDTVRip 720p

35 | 11

3.28 ГБ




Вы не можете начинать темы
Вы не можете отвечать на сообщения
Вы не можете редактировать свои сообщения
Вы не можете удалять свои сообщения
Вы не можете добавлять вложения

Перейти:  
Для Мосгорсуда, Роскомнадзора и рекламодателей: mosgorsud-torrent[собачка]yandex.ru
 Вход
ppkBB3cker v.2 © 2008-2014 @ PPK
[ Time : 0.028s | 15 Queries | GZIP : Off ]

Торрент трекер RUTOR.IN, Не можете зайти на rutor.org? Какой новый адрес рутор? Какое зеркало рутор? Не работает rutor.org и зеркала? Тогда наш торрент специально для вас. Rutor.in неофициальное зеркало rutor. В случае если у Вас заблокирован rutor или вдруг Вы не можете на него зайти, то Вы без труда сможете скачать бесплатно и без рекламы последние новинки кино, игр, сериалов и прочего у нас, на Rutor.in. Не нужно использовать прокси, чтобы зайти на рутор, достаточно воспользоваться нашим ресурсом. Все новые фильмы, игры, сериалы, книги и музыка за 2013 и 2014 годы через торрент бесплатно. Скачивайте фильмы в хорошем качестве, игры для пк, xbox, playstation без регистрации. У нас вы найдете новые Зарубежные сериалы и Русские сериалы 2013, 2014, 2015 годов. Оставайтесь с нами, качайте любимые фильмы, игры, сериалы, книги и музыку.