img image001 image001 image001 image001 image001 image001 image001 image001 image001 image001 image001 image001 image001 image001 image001

Planets Sun Sun Sun
Статистика раздачи
Автор: Nickolas3434 | Размер: 1.02 ГБ | Добавлен: 14 дек 2014
Раздают: 117    Качают: 11
Скачать торрент
Скачать торрент
Описание торрента

СообщениеДобавлено: 14 дек 2014 

Кубок Мира 2014-15. 2-й этап. Хохфильцен (Австрия). Мужчины. Спринт 10 км

Вид спорта: Биатлон
Комментарий: Профессиональный
Язык комментариев: Русский (Курдюков)
Описание: Кубок Мира 2014-15. 2-й этап. Хохфильцен (Австрия). Мужчины. Спринт 10 км. Перед гонкой снова посиделки со спортсменами норвежской сборной.
Автор рипа: sanchez2011
Качество: SATRip
Формат: MKV
Видео кодек: AVC
Аудио кодек: MP2
Видео: MPEG4 Video (H264) 704x400 (16:9) 25fps 1700kbps
Аудио: MPEG Audio 48000Hz mono 96kbps
Продолжительность: 01:21:57
Код:
General
Unique ID                : 250678845599476007396023847883097233574 (0xBC96FD50F32468E88DB9F08171B7D8A6)
Complete name              : E:TorrentБиатлон. Сезон 2014-2015Кубок Мира 2014-15. 2-й этап. Хохфильцен (Австрия). Мужчины. Спринт 10 км. Евроспорт.mkv
Format                  : Matroska
Format version              : Version 4 / Version 2
File size                : 1.02 GiB
Duration                 : 1h 21mn
Overall bit rate             : 1 785 Kbps
Encoded date               : UTC 2014-12-12 16:17:56
Writing application           : mkvmerge v6.7.0 ('Back to the Ground') 64bit built on Jan 8 2014 15:10:52
Writing library             : XviD4PSP 6.0 / 53.6.0

Video
ID                    : 1
Format                  : AVC
Format/Info               : Advanced Video Codec
Format profile              : High@L4.1
Format settings, CABAC          : Yes
Format settings, ReFrames        : 3 frames
Codec ID                 : V_MPEG4/ISO/AVC
Duration                 : 1h 21mn
Bit rate                 : 1 700 Kbps
Width                  : 704 pixels
Height                  : 400 pixels
Display aspect ratio           : 16:9
Frame rate mode             : Constant
Frame rate                : 25.000 fps
Color space               : YUV
Chroma subsampling            : 4:2:0
Bit depth                : 8 bits
Scan type                : Progressive
Bits/(Pixel*Frame)            : 0.241
Stream size               : 969 MiB (93%)
Writing library             : x264 core 116 r2019M 9cc407d
Encoding settings            : cabac=1 / ref=3 / deblock=1:0:0 / analyse=0x3:0x133 / me=hex / subme=7 / psy=1 / psy_rd=1.00:0.20 / mixed_ref=1 / me_range=16 / chroma_me=1 / trellis=1 / 8x8dct=1 / cqm=0 / deadzone=21,11 / fast_pskip=1 / chroma_qp_offset=-3 / threads=8 / sliced_threads=0 / nr=0 / decimate=1 / interlaced=0 / bluray_compat=0 / constrained_intra=0 / bframes=3 / b_pyramid=1 / b_adapt=2 / b_bias=0 / direct=3 / weightb=1 / open_gop=0 / weightp=2 / keyint=250 / keyint_min=25 / scenecut=40 / intra_refresh=0 / rc_lookahead=40 / rc=abr / mbtree=1 / bitrate=1700 / ratetol=1.0 / qcomp=0.60 / qpmin=10 / qpmax=51 / qpstep=4 / ip_ratio=1.40 / aq=1:1.00
Default                 : Yes
Forced                  : No

Audio
ID                    : 2
Format                  : MPEG Audio
Format version              : Version 1
Format profile              : Layer 2
Codec ID                 : A_MPEG/L2
Codec ID/Hint              : MP2
Duration                 : 1h 21mn
Bit rate mode              : Constant
Bit rate                 : 96.0 Kbps
Channel(s)                : 1 channel
Sampling rate              : 48.0 KHz
Compression mode             : Lossy
Stream size               : 56.3 MiB (5%)
Language                 : Russian
Default                 : Yes
Forced                  : No



   Похожие торренты   Торрент   Размер 
В этой теме нет новых непрочитанных сообщений. Биатлон. Кубок Мира 2014-15. 2-й этап. Хохфильцен (Австрия) Женщины. Спринт 7,5 км Евроспорт (2014) SATRip

47 | 4

1.07 ГБ

В этой теме нет новых непрочитанных сообщений. Биатлон. Кубок Мира 2014-15. 2-й этап. Хохфильцен (Австрия) Мужчины. Спринт 10 км (2014) IPTVRip

58 | 4

2.56 ГБ

В этой теме нет новых непрочитанных сообщений. Биатлон. Кубок Мира 2014-15. 2-й этап. Хохфильцен (Австрия) Мужчины. Спринт 10 км (2014) HDTVRip 720p | 50 FPS

100 | 25

2.61 ГБ

В этой теме нет новых непрочитанных сообщений. Биатлон. Кубок Мира 2014-15. 2-й этап. Хохфильцен (Австрия) Мужчины. Спринт 10 км (2014) HDTV 1080i

53 | 9

6.92 ГБ

В этой теме нет новых непрочитанных сообщений. Биатлон. Кубок мира 2011/2012. 3-й этап. Мужчины. Спринт 10 км. Хохфильцен. Австрия (2011) SATRip

0 | 2

1.36 ГБ

В этой теме нет новых непрочитанных сообщений. Биатлон. Кубок Мира 2012-13. 2-й этап. Хохфильцен (Австрия). Мужчины. Спринт. 10 км [Россия 2] [07.12] (2012) SATRip

1 | 2

1.51 ГБ

В этой теме нет новых непрочитанных сообщений. Биатлон. Кубок мира 2013/14. 8 этап. Спринт 10 км. Мужчины. Контиолахти (Финляндия) [Евроспорт] [15.03] (2014) SATRip

27 | 3

759.98 МБ




Вы не можете начинать темы
Вы не можете отвечать на сообщения
Вы не можете редактировать свои сообщения
Вы не можете удалять свои сообщения
Вы не можете добавлять вложения

Перейти:  
Для Мосгорсуда, Роскомнадзора и рекламодателей: mosgorsud-torrent[собачка]yandex.ru
 Вход
ppkBB3cker v.2 © 2008-2014 @ PPK
[ Time : 0.022s | 15 Queries | GZIP : On ]

Торрент трекер RUTOR.IN, Не можете зайти на rutor.org? Какой новый адрес рутор? Какое зеркало рутор? Не работает rutor.org и зеркала? Тогда наш торрент специально для вас. Rutor.in неофициальное зеркало rutor. В случае если у Вас заблокирован rutor или вдруг Вы не можете на него зайти, то Вы без труда сможете скачать бесплатно и без рекламы последние новинки кино, игр, сериалов и прочего у нас, на Rutor.in. Не нужно использовать прокси, чтобы зайти на рутор, достаточно воспользоваться нашим ресурсом. Все новые фильмы, игры, сериалы, книги и музыка за 2013 и 2014 годы через торрент бесплатно. Скачивайте фильмы в хорошем качестве, игры для пк, xbox, playstation без регистрации. У нас вы найдете новые Зарубежные сериалы и Русские сериалы 2013, 2014, 2015 годов. Оставайтесь с нами, качайте любимые фильмы, игры, сериалы, книги и музыку.