img image001 image001 image001 image001 image001 image001 image001 image001 image001 image001 image001 image001 image001 image001 image001

Planets Sun Sun Sun
Статистика раздачи
Автор: Nickolas3434 | Размер: 2.56 ГБ | Добавлен: 14 дек 2014
Раздают: 58    Качают: 4
Скачать торрент
Скачать торрент
Описание торрента

СообщениеДобавлено: 14 дек 2014 

Кубок Мира 2014-15. 2-й этап. Хохфильцен (Австрия).
Мужчины. Спринт 10 км / Спорт 1




Вид спорта: Биатлон
Дата/Год выпуска: 12/12/14
Продолжительность: 1:29:42
Язык комментариев: Русский (Дмитрий Губерниев)
Канал:
Автор записи:
Maxxim98
Качество: IPTVRip
Формат видео: MPEG-TS
Видео: MPEG Video 720x576 (16:9) 25.00fps 3700 Kbps
Аудио: MPEG Audio 48000Hz stereo 192 Kbps
MediaInfo:
General
ID : 33963 (0x84AB)
Complete name : D:Биатлон. 2 этап КМБиатлон. КМ. Мужчины. Спринт (12.12.14).ts
Format : MPEG-TS
File size : 2.56 GiB
Duration : 1h 29mn
Overall bit rate mode : Variable
Overall bit rate : 4 081 Kbps

Video
ID : 69 (0x45)
Menu ID : 1 (0x1)
Format : MPEG Video
Format version : Version 2
Format profile : Main@Main
Format settings, BVOP : Yes
Format settings, Matrix : Custom
Format settings, GOP : Variable
Codec ID : 2
Duration : 1h 29mn
Bit rate mode : Variable
Bit rate : 3 686 Kbps
Maximum bit rate : 15.0 Mbps
Width : 720 pixels
Height : 576 pixels
Display aspect ratio : 16:9
Frame rate : 25.000 fps
Standard : PAL
Color space : YUV
Chroma subsampling : 4:2:0
Bit depth : 8 bits
Scan type : Interlaced
Scan order : Top Field First
Compression mode : Lossy
Bits/(Pixel*Frame) : 0.355
Stream size : 2.31 GiB (90%)

Audio
ID : 68 (0x44)
Menu ID : 1 (0x1)
Format : MPEG Audio
Format version : Version 1
Format profile : Layer 2
Codec ID : 3
Duration : 1h 29mn
Bit rate mode : Constant
Bit rate : 192 Kbps
Channel(s) : 2 channels
Sampling rate : 48.0 KHz
Compression mode : Lossy
Delay relative to video : -1s 681ms
Stream size : 123 MiB (5%)
Language : Russian

РЕЗУЛЬТАТЫ

СКРИНШОТЫ:





   Похожие торренты   Торрент   Размер 
В этой теме нет новых непрочитанных сообщений. Биатлон. Кубок Мира 2014-15. 2-й этап. Хохфильцен (Австрия) Мужчины. Спринт 10 км (2014) HDTVRip 720p | 50 FPS

100 | 25

2.61 ГБ

В этой теме нет новых непрочитанных сообщений. Биатлон. Кубок Мира 2014-15. 2-й этап. Хохфильцен (Австрия) Мужчины. Спринт 10 км (2014) HDTV 1080i

53 | 9

6.92 ГБ

В этой теме нет новых непрочитанных сообщений. Биатлон. Кубок Мира 2014-15. 2-й этап. Хохфильцен (Австрия) Мужчины. Спринт 10 км Евроспорт (2014) SATRip

117 | 11

1.02 ГБ

В этой теме нет новых непрочитанных сообщений. Биатлон. Кубок Мира 2014-15. 2-й этап. Хохфильцен (Австрия) Женщины. Спринт 7,5 км (2014) HDTVRip

85 | 11

1.16 ГБ

В этой теме нет новых непрочитанных сообщений. Биатлон. Кубок Мира 2014-15. 2-й этап. Хохфильцен (Австрия) Женщины. Спринт 7,5 км (2014) HDTVRip 720p | 50 FPS

85 | 14

2.57 ГБ

В этой теме нет новых непрочитанных сообщений. Биатлон. Кубок Мира 2014-15. 2-й этап. Хохфильцен (Австрия) Женщины. Спринт 7,5 км (2014) HDTV 1080i

47 | 4

6.53 ГБ

В этой теме нет новых непрочитанных сообщений. Биатлон. Кубок Мира 2014-15. 2-й этап. Хохфильцен (Австрия) Женщины. Спринт 7,5 км Евроспорт (2014) SATRip

47 | 4

1.07 ГБ




Вы не можете начинать темы
Вы не можете отвечать на сообщения
Вы не можете редактировать свои сообщения
Вы не можете удалять свои сообщения
Вы не можете добавлять вложения

Перейти:  
Для Мосгорсуда, Роскомнадзора и рекламодателей: mosgorsud-torrent[собачка]yandex.ru
 Вход
ppkBB3cker v.2 © 2008-2014 @ PPK
[ Time : 0.526s | 14 Queries | GZIP : Off ]

Торрент трекер RUTOR.IN, Не можете зайти на rutor.org? Какой новый адрес рутор? Какое зеркало рутор? Не работает rutor.org и зеркала? Тогда наш торрент специально для вас. Rutor.in неофициальное зеркало rutor. В случае если у Вас заблокирован rutor или вдруг Вы не можете на него зайти, то Вы без труда сможете скачать бесплатно и без рекламы последние новинки кино, игр, сериалов и прочего у нас, на Rutor.in. Не нужно использовать прокси, чтобы зайти на рутор, достаточно воспользоваться нашим ресурсом. Все новые фильмы, игры, сериалы, книги и музыка за 2013 и 2014 годы через торрент бесплатно. Скачивайте фильмы в хорошем качестве, игры для пк, xbox, playstation без регистрации. У нас вы найдете новые Зарубежные сериалы и Русские сериалы 2013, 2014, 2015 годов. Оставайтесь с нами, качайте любимые фильмы, игры, сериалы, книги и музыку.