img image001 image001 image001 image001 image001 image001 image001 image001 image001 image001 image001 image001 image001 image001 image001

Planets Sun Sun Sun
Статистика раздачи
Автор: Nickolas3434 | Размер: 4.13 ГБ | Добавлен: 21 дек 2014
Раздают: 12    Качают: 4
Скачать торрент
Скачать торрент
Описание торрента

СообщениеДобавлено: 21 дек 2014 

Кубок Мира 2014-15. 3-й этап. Поклюка (Словения). Мужчины. Спринт 10 км
Вид спорта: Биатлон
Комментарий: Профессиональный
Язык комментариев: Русский (Андрей Романов)
Описание: Кубок Мира 2014-15. 3-й этап. Поклюка (Словения). Мужчины. Спринт 10 км.
Автор рипа: sanchez2011
Качество: HDTV
Формат: TS
Видео кодек: AVC
Аудио кодек: MP2
Видео: MPEG4 Video (H264) 1920x1080 (16:9) 25fps 9200kbps
Аудио: MPEG Audio 48000Hz stereo 192kbps
Продолжительность: 00:59:49
Код:
General
ID                    : 1 (0x1)
Complete name              : E:TorrentБиатлон. Сезон 2014-2015Кубок Мира 2014-15. 3-й этап. Поклюка (Словения). Мужчины. Спринт 10 км Евроспорт HD.ts
Format                  : MPEG-TS
File size                : 4.13 GiB
Duration                 : 59mn 49s
Overall bit rate mode          : Variable
Overall bit rate             : 9 879 Kbps
Video
ID                    : 513 (0x201)
Menu ID                 : 1 (0x1)
Format                  : AVC
Format/Info               : Advanced Video Codec
Format profile              : High@L4.0
Format settings, CABAC          : Yes
Format settings, ReFrames        : 4 frames
Codec ID                 : 27
Duration                 : 59mn 49s
Bit rate                 : 9 197 Kbps
Width                  : 1 920 pixels
Height                  : 1 080 pixels
Display aspect ratio           : 16:9
Frame rate                : 25.000 fps
Color space               : YUV
Chroma subsampling            : 4:2:0
Bit depth                : 8 bits
Scan type                : MBAFF
Bits/(Pixel*Frame)            : 0.177
Stream size               : 3.84 GiB (93%)
Color primaries             : BT.709
Transfer characteristics         : BT.709
Matrix coefficients           : BT.709
Audio
ID                    : 514 (0x202)
Menu ID                 : 1 (0x1)
Format                  : MPEG Audio
Format version              : Version 1
Format profile              : Layer 2
Codec ID                 : 3
Duration                 : 59mn 49s
Bit rate mode              : Constant
Bit rate                 : 192 Kbps
Channel(s)                : 2 channels
Sampling rate              : 48.0 KHz
Compression mode             : Lossy
Stream size               : 82.1 MiB (2%)
Language                 : Russian



   Похожие торренты   Торрент   Размер 
В этой теме нет новых непрочитанных сообщений. Биатлон. Кубок мира 2013/14. 7 этап. Спринт. Мужчины. Поклюка (Словения) [Спорт 1 HD] [06.03] (2014) HDTV 1080i от MediaClub

29 | 3

4.88 ГБ

В этой теме нет новых непрочитанных сообщений. Биатлон. Кубок Мира 2014-15. 3-й этап. Поклюка (Словения). Мужчины. Масс-старт 15 км [Eurosport HD] (2014) HDTV 1080i

39 | 2

2.61 ГБ

В этой теме нет новых непрочитанных сообщений. Биатлон. Кубок Мира 2014-15. 3-й этап. Поклюка (Словения) Женщины. Спринт 7,5 км (2014) HDTV 1080i

5 | 2

6.19 ГБ

В этой теме нет новых непрочитанных сообщений. Биатлон. Кубок Мира 2015-16. 3-й этап. Поклюка (Словения). Мужчины. Спринт 10 км [17.12] (2015) HDTV 1080i

32 | 6

6.47 ГБ

В этой теме нет новых непрочитанных сообщений. Биатлон. Кубок мира 2013/14. 7 этап. Спринт. Женщины. Поклюка (Словения) [Спорт 1 HD] [06.03] (2014) HDTV 1080i от MediaClub

43 | 3

4.46 ГБ

В этой теме нет новых непрочитанных сообщений. Биатлон. Кубок Мира 2015-16. 3-й этап. Поклюка (Словения). Мужчины. Гонка преследования 12.5 км [Eurosport HD] [19.12] (2015) HDTV 1080i

21 | 3

3.41 ГБ

В этой теме нет новых непрочитанных сообщений. Биатлон. Кубок Мира 2012-13. 3-й этап. Поклюка (Словения). Мужчины. Гонка преследования 12.5 км [Eurosport HD] [15.12] (2012) HDTV 1080i

0 | 1

2.75 ГБ




Вы не можете начинать темы
Вы не можете отвечать на сообщения
Вы не можете редактировать свои сообщения
Вы не можете удалять свои сообщения
Вы не можете добавлять вложения

Перейти:  
Для Мосгорсуда, Роскомнадзора и рекламодателей: mosgorsud-torrent[собачка]yandex.ru
 Вход
ppkBB3cker v.2 © 2008-2014 @ PPK
[ Time : 1.002s | 15 Queries | GZIP : On ]

Торрент трекер RUTOR.IN, Не можете зайти на rutor.org? Какой новый адрес рутор? Какое зеркало рутор? Не работает rutor.org и зеркала? Тогда наш торрент специально для вас. Rutor.in неофициальное зеркало rutor. В случае если у Вас заблокирован rutor или вдруг Вы не можете на него зайти, то Вы без труда сможете скачать бесплатно и без рекламы последние новинки кино, игр, сериалов и прочего у нас, на Rutor.in. Не нужно использовать прокси, чтобы зайти на рутор, достаточно воспользоваться нашим ресурсом. Все новые фильмы, игры, сериалы, книги и музыка за 2013 и 2014 годы через торрент бесплатно. Скачивайте фильмы в хорошем качестве, игры для пк, xbox, playstation без регистрации. У нас вы найдете новые Зарубежные сериалы и Русские сериалы 2013, 2014, 2015 годов. Оставайтесь с нами, качайте любимые фильмы, игры, сериалы, книги и музыку.