img image001 image001 image001 image001 image001 image001 image001 image001 image001 image001 image001 image001 image001 image001 image001

Planets Sun Sun Sun
Статистика раздачи
Автор: Nickolas3434 | Размер: 492.83 МБ | Добавлен: 23 дек 2014
Раздают: 37    Качают: 2
Скачать торрент
Скачать торрент
Описание торрента

СообщениеДобавлено: 23 дек 2014 

Кубок Мира 2014-15. 3-й этап. Поклюка (Словения). Мужчины. Масс-старт 15 км
Вид спорта: Биатлон
Комментарий: Профессиональный
Язык комментариев: Русский (Дмитрий Терехов)
Описание: Кубок Мира 2014-15. 3-й этап. Поклюка (Словения). Мужчины. Масс-старт 15 км.
Автор рипа: sanchez2011
Качество: HDTVRip
Формат: MKV
Видео кодек: AVC
Аудио кодек: MP2
Видео: MPEG4 Video (H264) 704x400 (16:9) 25fps 1700kbps
Аудио: MPEG Audio 48000Hz stereo 192kbps
Продолжительность: 00:36:45
Код:
General
Unique ID                : 234726137886941199441119600496266713424 (0xB0969C19CCE6755B9857B5EBED941950)
Complete name              : E:TorrentБиатлон. Сезон 2014-2015Кубок Мира 2014-15. 3-й этап. Поклюка (Словения). Мужчины. Гонка преследования 12,5 км. Eurosport.mkv
Format                  : Matroska
Format version              : Version 4 / Version 2
File size                : 447 MiB
Duration                 : 33mn 1s
Overall bit rate             : 1 892 Kbps
Encoded date               : UTC 2014-12-20 17:42:43
Writing application           : mkvmerge v6.7.0 ('Back to the Ground') 64bit built on Jan 8 2014 15:10:52
Writing library             : XviD4PSP 6.0 / 53.6.0
Video
ID                    : 1
Format                  : AVC
Format/Info               : Advanced Video Codec
Format profile              : High@L4.1
Format settings, CABAC          : Yes
Format settings, ReFrames        : 3 frames
Codec ID                 : V_MPEG4/ISO/AVC
Duration                 : 33mn 1s
Bit rate                 : 1 700 Kbps
Width                  : 704 pixels
Height                  : 400 pixels
Display aspect ratio           : 16:9
Frame rate mode             : Constant
Frame rate                : 25.000 fps
Color space               : YUV
Chroma subsampling            : 4:2:0
Bit depth                : 8 bits
Scan type                : Progressive
Bits/(Pixel*Frame)            : 0.241
Stream size               : 393 MiB (88%)
Writing library             : x264 core 116 r2019M 9cc407d
Encoding settings            : cabac=1 / ref=3 / deblock=1:0:0 / analyse=0x3:0x133 / me=hex / subme=7 / psy=1 / psy_rd=1.00:0.20 / mixed_ref=1 / me_range=16 / chroma_me=1 / trellis=1 / 8x8dct=1 / cqm=0 / deadzone=21,11 / fast_pskip=1 / chroma_qp_offset=-3 / threads=8 / sliced_threads=0 / nr=0 / decimate=1 / interlaced=0 / bluray_compat=0 / constrained_intra=0 / bframes=3 / b_pyramid=1 / b_adapt=2 / b_bias=0 / direct=3 / weightb=1 / open_gop=0 / weightp=2 / keyint=250 / keyint_min=25 / scenecut=40 / intra_refresh=0 / rc_lookahead=40 / rc=abr / mbtree=1 / bitrate=1700 / ratetol=1.0 / qcomp=0.60 / qpmin=10 / qpmax=51 / qpstep=4 / ip_ratio=1.40 / aq=1:1.00
Default                 : Yes
Forced                  : No
Audio
ID                    : 2
Format                  : MPEG Audio
Format version              : Version 1
Format profile              : Layer 2
Codec ID                 : A_MPEG/L2
Codec ID/Hint              : MP2
Duration                 : 33mn 1s
Bit rate mode              : Constant
Bit rate                 : 192 Kbps
Channel(s)                : 2 channels
Sampling rate              : 48.0 KHz
Compression mode             : Lossy
Stream size               : 45.3 MiB (10%)
Language                 : Russian
Default                 : Yes
Forced                  : No



   Похожие торренты   Торрент   Размер 
В этой теме нет новых непрочитанных сообщений. Биатлон. Кубок Мира 2014-15. 3-й этап. Поклюка (Словения). Мужчины. Масс-старт 15 км [Eurosport HD] (2014) HDTV 1080i

39 | 2

2.61 ГБ

В этой теме нет новых непрочитанных сообщений. Биатлон. Кубок мира 2013/14. 7 этап. Масс-старт. Мужчины. Поклюка (Словения) [Спорт 1 HD] [09.03] (2014) HDTVRip

69 | 13

584.04 МБ

В этой теме нет новых непрочитанных сообщений. Биатлон. Кубок Мира 2014-15. 3-й этап. Поклюка (Словения). Мужчины. Масс-старт 15 км (2014) HDTVRip

141 | 7

1.79 ГБ

В этой теме нет новых непрочитанных сообщений. Биатлон. Кубок Мира 2014-15. 3-й этап. Поклюка (Словения). Мужчины. Масс-старт 15 км (2014) HDTVRip 720p | 50 FPS

65 | 4

3.5 ГБ

В этой теме нет новых непрочитанных сообщений. Биатлон. Кубок мира 2013/14. 7 этап. Масс-старт. Мужчины. Поклюка (Словения) [Спорт 1 HD] [09.03] (2014) HDTVRip 720р

120 | 7

1.07 ГБ

В этой теме нет новых непрочитанных сообщений. Биатлон. Кубок Мира 2012-13. 3-й этап. Поклюка (Словения). Мужчины. Масс - старт [Eurosport HD] [16.12] (2012) HDTV 1080i

0 | 1

2.91 ГБ

В этой теме нет новых непрочитанных сообщений. Биатлон. Кубок Мира 2014-15. 3-й этап. Поклюка (Словения). Мужчины. Масс-старт 15 км (2014) HDTV 1080i

16 | 3

9.21 ГБ




Вы не можете начинать темы
Вы не можете отвечать на сообщения
Вы не можете редактировать свои сообщения
Вы не можете удалять свои сообщения
Вы не можете добавлять вложения

Перейти:  
Для Мосгорсуда, Роскомнадзора и рекламодателей: mosgorsud-torrent[собачка]yandex.ru
 Вход
ppkBB3cker v.2 © 2008-2014 @ PPK
[ Time : 0.039s | 16 Queries | GZIP : Off ]

cron