img image001 image001 image001 image001 image001 image001 image001 image001 image001 image001 image001 image001 image001 image001 image001

Planets Sun Sun Sun
Статистика раздачи
Автор: Nickolas3434 | Размер: 6.64 ГБ | Добавлен: 04 янв 2015
Раздают: 20    Качают: 3
Скачать торрент
Скачать торрент
Описание торрента

СообщениеДобавлено: 04 янв 2015 

NHL Winter Classic 2015:
Chicago Blackhawks - Washington Capitals



Вид спорта: Хоккей
Участники:
Chicago Blackhawks - Washington Capitals
Дата/Год выпуска:
01.01.2015
Язык комментариев:
Руслан Берлин, Олег Шибеко
Автор рипа/записи:
tommyganZ
Доп. информация:
Присутствуют помехи сигнала в трансляции.
Качество:
HDTV
Формат видео:
TS
Видео:
MPEG4 Video (H264) 1920x1088 25.00fps 6860 kbps
Аудио 1:
RUS; MP2; 48000 Hz; 192 kbps; Stereo; 2 channels
Аудио 2:
ENG; MP2; 48000 Hz; 192 kbps; Stereo; 2 channels


Формат : MPEG-TS
Размер файла : 2,38 Гбайт
Продолжительность : 45 м.
Режим общего битрейта : Постоянный
Общий поток : 7563 Кбит/сек
Видео
Идентификатор : 70 (0x46)
Идентификатор меню : 1 (0x1)
Формат : AVC
Формат/Информация : Advanced Video Codec
Профиль формата : High@L4.0
Параметр CABAC формата : Да
Параметр ReFrames формата : 3 кадра
Идентификатор кодека : 27
Продолжительность : 45 м.
Вид битрейта : Постоянный
Битрейт : 6860 Кбит/сек
Ширина : 1920 пикселей
Высота : 1080 пикселей
Соотношение сторон : 16:9
Частота кадров : 25,000 кадров/сек
Цветовое пространство : YUV
Субдискретизация насыщенности : 4:2:0
Битовая глубина : 8 бит
Тип развёртки : MBAFF
Порядок развёртки : Верхнее поле первое
Бит/(Пиксели*Кадры) : 0.132
Размер потока : 2,14 Гбайт (90%)
Основные цвета : BT.709-5, BT.1361, IEC 61966-2-4, SMPTE RP177
Характеристики трансфера : BT.709-5, BT.1361
Коэффициенты матрицы : BT.709-5, BT.1361, IEC 61966-2-4 709, SMPTE RP177
Аудио #1
Идентификатор : 68 (0x44)
Идентификатор меню : 1 (0x1)
Формат : MPEG Audio
Версия формата : Version 1
Профиль формата : Layer 2
Идентификатор кодека : 3
Продолжительность : 45 м.
Вид битрейта : Постоянный
Битрейт : 192 Кбит/сек
Каналы : 2 канала
Частота : 48,0 КГц
Метод сжатия : С потерями
Задержка видео : 24 мс.
Размер потока : 61,9 Мбайт (3%)
Аудио #2
Идентификатор : 69 (0x45)
Идентификатор меню : 1 (0x1)
Формат : MPEG Audio
Версия формата : Version 1
Профиль формата : Layer 2
Идентификатор кодека : 3
Продолжительность : 45 м.
Вид битрейта : Постоянный
Битрейт : 192 Кбит/сек
Каналы : 2 канала
Частота : 48,0 КГц
Метод сжатия : С потерями
Задержка видео : 24 мс.
Размер потока : 61,9 Мбайт (3%)
02:05:42


3:2



   Похожие торренты   Торрент   Размер 
В этой теме нет новых непрочитанных сообщений. Хоккей. NHL 14/15, RS: Winter Classic 2015: Chicago Blackhawks vs. Washington Capitals [01.01] (2015) HDTVRip 720p

46 | 9

2.32 ГБ

В этой теме нет новых непрочитанных сообщений. Хоккей. NHL 14/15, RS: Winter Classic 2015: Chicago Blackhawks vs. Washington Capitals [01.01] (2015) HDStr 720p | 60 fps

108 | 21

4.1 ГБ

В этой теме нет новых непрочитанных сообщений. Хоккей. NHL 15/16, RS: Chicago Blackhawks vs. Washington Capitals [36-я студия] [15.10] (2015) HDStr 720p | 60 fps

39 | 8

3.28 ГБ

В этой теме нет новых непрочитанных сообщений. Хоккей. NHL 13/14, RS: Washington Capitals vs. Chicago Blackhawks [01.10] (2013) HDStr 720p | 60 fps

0 | 1

4.24 ГБ

В этой теме нет новых непрочитанных сообщений. Хоккей. NHL 14/15, RS: Chicago Blackhawks vs. Pittsburgh Penguins [21.01] (2015) HDTV 1080i

18 | 4

5.54 ГБ

В этой теме нет новых непрочитанных сообщений. Хоккей. NHL '15, SC Final, games 1- : Tampa Bay Lightning vs. Chicago Blackhawks [Setanta] [03.06] (2015) HDTV 1080i

21 | 11

5.77 ГБ

В этой теме нет новых непрочитанных сообщений. Хоккей. NHL 13/14, RS: Washington Capitals vs Detroit Red Wings [31.01] (2014) HDTV 1080i

0 | 2

8.88 ГБ




Вы не можете начинать темы
Вы не можете отвечать на сообщения
Вы не можете редактировать свои сообщения
Вы не можете удалять свои сообщения
Вы не можете добавлять вложения

Перейти:  
Для Мосгорсуда, Роскомнадзора и рекламодателей: mosgorsud-torrent[собачка]yandex.ru
 Вход
ppkBB3cker v.2 © 2008-2014 @ PPK
[ Time : 0.028s | 15 Queries | GZIP : Off ]

Торрент трекер RUTOR.IN, Не можете зайти на rutor.org? Какой новый адрес рутор? Какое зеркало рутор? Не работает rutor.org и зеркала? Тогда наш торрент специально для вас. Rutor.in неофициальное зеркало rutor. В случае если у Вас заблокирован rutor или вдруг Вы не можете на него зайти, то Вы без труда сможете скачать бесплатно и без рекламы последние новинки кино, игр, сериалов и прочего у нас, на Rutor.in. Не нужно использовать прокси, чтобы зайти на рутор, достаточно воспользоваться нашим ресурсом. Все новые фильмы, игры, сериалы, книги и музыка за 2013 и 2014 годы через торрент бесплатно. Скачивайте фильмы в хорошем качестве, игры для пк, xbox, playstation без регистрации. У нас вы найдете новые Зарубежные сериалы и Русские сериалы 2013, 2014, 2015 годов. Оставайтесь с нами, качайте любимые фильмы, игры, сериалы, книги и музыку.