img image001 image001 image001 image001 image001 image001 image001 image001 image001 image001 image001 image001 image001 image001 image001

Planets Sun Sun Sun
Статистика раздачи
Автор: Nickolas3434 | Размер: 3.89 ГБ | Добавлен: 03 янв 2015
Раздают: 21    Качают: 8
Скачать торрент
Скачать торрент
Описание торрента

СообщениеДобавлено: 03 янв 2015 

Лыжные гонки. Кубок Мира 2014/2015. Tour De Ski. Оберстдорф (Германия). Женщины. Пролог 3,2 км. Свободный стиль
Вид спорта: Лыжные гонки
Комментарий: Профессиональный
Язык комментариев: Русский (Курдюков)
Описание: Лыжные гонки. Кубок Мира 2014/2015. Tour De Ski. Оберстдорф (Германия). Женщины. Пролог 3,2 км. Свободный стиль.
Автор рипа: sanchez2011
Качество: HDTV
Формат: TS
Видео кодек: AVC
Аудио кодек: MP2
Видео: MPEG4 Video (H264) 1920x1080 (16:9) 25fps 9200kbps
Аудио: MPEG Audio 48000Hz stereo 192kbps
Продолжительность: 00:56:49
Код:
General
ID                    : 1 (0x1)
Complete name              : E:Лыжные гонки. Tour De Ski 2015. Оберстдорф (Германия). Женщины. Пролог 3,2 км. Свободный стиль.ts
Format                  : MPEG-TS
File size                : 3.89 GiB
Duration                 : 56mn 49s
Overall bit rate mode          : Variable
Overall bit rate             : 9 812 Kbps
Video
ID                    : 513 (0x201)
Menu ID                 : 1 (0x1)
Format                  : AVC
Format/Info               : Advanced Video Codec
Format profile              : High@L4.0
Format settings, CABAC          : Yes
Format settings, ReFrames        : 4 frames
Codec ID                 : 27
Duration                 : 56mn 49s
Bit rate                 : 9 133 Kbps
Width                  : 1 920 pixels
Height                  : 1 080 pixels
Display aspect ratio           : 16:9
Frame rate                : 25.000 fps
Color space               : YUV
Chroma subsampling            : 4:2:0
Bit depth                : 8 bits
Scan type                : MBAFF
Bits/(Pixel*Frame)            : 0.176
Stream size               : 3.63 GiB (93%)
Color primaries             : BT.709
Transfer characteristics         : BT.709
Matrix coefficients           : BT.709
Audio
ID                    : 514 (0x202)
Menu ID                 : 1 (0x1)
Format                  : MPEG Audio
Format version              : Version 1
Format profile              : Layer 2
Codec ID                 : 3
Duration                 : 56mn 49s
Bit rate mode              : Constant
Bit rate                 : 192 Kbps
Channel(s)                : 2 channels
Sampling rate              : 48.0 KHz
Compression mode             : Lossy
Stream size               : 78.0 MiB (2%)
Language                 : Russian



   Похожие торренты   Торрент   Размер 
В этой теме нет новых непрочитанных сообщений. Лыжные гонки. Кубок Мира 2014-15. Tour De Ski. Оберстдорф (Германия). Мужчины. Пролог 4,4 км. СС [03.01] (2015) HDTV 1080i

39 | 6

4.23 ГБ

В этой теме нет новых непрочитанных сообщений. Лыжные гонки. Кубок Мира 2014-15. Tour De Ski. Оберстдорф (Германия). Женщины. Гонка преследования. Классика [04.01] (2015) HDTV 1080i

10 | 4

2.66 ГБ

В этой теме нет новых непрочитанных сообщений. Лыжные гонки. Кубок Мира 2014-15. Tour De Ski. Оберстдорф (Германия). Мужчины. Гонка преследования 15 км. Классика [04.01] (2015) HDTV 1080i

11 | 6

3.14 ГБ

В этой теме нет новых непрочитанных сообщений. Лыжные гонки. Кубок Мира 2014-15. Tour De Ski. Оберстдорф (Германия). Женщины. Гонка преследования. Классика [04.01] (2015) HDTVRip 720p | 50 fps

23 | 8

1.6 ГБ

В этой теме нет новых непрочитанных сообщений. Лыжные гонки. Кубок мира 2016-17. Тур де Ски. Оберстдорф (Германия). Женщины. Скиатлон. 5+5 км [03.01] (2017) HDTV 1080i

32 | 13

3.5 ГБ

В этой теме нет новых непрочитанных сообщений. Лыжные гонки. Кубок мира 2016-17. Тур де Ски. Оберстдорф (Германия). Женщины. Гонка преследования [04.01] (2017) HDTV 1080i

0 | 0

3.37 ГБ

В этой теме нет новых непрочитанных сообщений. Лыжные гонки. Кубок Мира 2014-15. Tour De Ski. Оберстдорф (Германия). Мужчины. Гонка преследования 15 км. Кл[04.01] (2015) HDTVRip 720р

48 | 11

1.3 ГБ




Вы не можете начинать темы
Вы не можете отвечать на сообщения
Вы не можете редактировать свои сообщения
Вы не можете удалять свои сообщения
Вы не можете добавлять вложения

Перейти:  
Для Мосгорсуда, Роскомнадзора и рекламодателей: mosgorsud-torrent[собачка]yandex.ru
 Вход
ppkBB3cker v.2 © 2008-2014 @ PPK
[ Time : 0.048s | 16 Queries | GZIP : Off ]

cron