img image001 image001 image001 image001 image001 image001 image001 image001 image001 image001 image001 image001 image001 image001 image001

Planets Sun Sun Sun
Статистика раздачи
Автор: Nickolas3434 | Размер: 2.66 ГБ | Добавлен: 05 янв 2015
Раздают: 10    Качают: 4
Скачать торрент
Скачать торрент
Описание торрента

СообщениеДобавлено: 05 янв 2015 

Лыжные гонки. Кубок Мира 2014-2015. Tour De Ski. Оберстдорф (Германия). Женщины. Гонка преследования. Классика
Вид спорта: Лыжные гонки
Комментарий: Профессиональный
Язык комментариев: Русский (Курдюков)
Описание: Лыжные гонки. Кубок Мира 2014-2015. Tour De Ski. Оберстдорф (Германия). Женщины. Гонка преследования. Классика.
Автор рипа: sanchez2011
Качество: HDTV
Формат: TS
Видео кодек: AVC
Аудио кодек: MP2
Видео: MPEG4 Video (H264) 1920x1080 (16:9) 25fps 9139kbps
Аудио: MPEG Audio 48000Hz stereo 192kbps
Продолжительность: 00:38:46
General
ID : 1 (0x1)
Complete name : E:Лыжные гонки. Кубок Мира 2014-2015. Tour De Ski. Оберстдорф (Германия). Женщины. Гонка преследования. Классика.ts
Format : MPEG-TS
File size : 2.66 GiB
Duration : 38mn 46s
Overall bit rate mode : Variable
Overall bit rate : 9 817 Kbps
Video
ID : 513 (0x201)
Menu ID : 1 (0x1)
Format : AVC
Format/Info : Advanced Video Codec
Format profile : High@L4.0
Format settings, CABAC : Yes
Format settings, ReFrames : 4 frames
Codec ID : 27
Duration : 38mn 46s
Bit rate : 9 139 Kbps
Width : 1 920 pixels
Height : 1 080 pixels
Display aspect ratio : 16:9
Frame rate : 25.000 fps
Color space : YUV
Chroma subsampling : 4:2:0
Bit depth : 8 bits
Scan type : MBAFF
Bits/(Pixel*Frame) : 0.176
Stream size : 2.47 GiB (93%)
Color primaries : BT.709
Transfer characteristics : BT.709
Matrix coefficients : BT.709
Audio
ID : 514 (0x202)
Menu ID : 1 (0x1)
Format : MPEG Audio
Format version : Version 1
Format profile : Layer 2
Codec ID : 3
Duration : 38mn 46s
Bit rate mode : Constant
Bit rate : 192 Kbps
Channel(s) : 2 channels
Sampling rate : 48.0 KHz
Compression mode : Lossy
Stream size : 53.2 MiB (2%)
Language : Russian



   Похожие торренты   Торрент   Размер 
В этой теме нет новых непрочитанных сообщений. Лыжные гонки. Кубок Мира 2014-15. Tour De Ski. Оберстдорф (Германия). Мужчины. Гонка преследования 15 км. Классика [04.01] (2015) HDTV 1080i

11 | 6

3.14 ГБ

В этой теме нет новых непрочитанных сообщений. Лыжные гонки. Кубок Мира 2014-15. Tour De Ski. Оберстдорф (Германия). Женщины. Гонка преследования. Классика [04.01] (2015) HDTVRip 720p | 50 fps

23 | 8

1.6 ГБ

В этой теме нет новых непрочитанных сообщений. Лыжные гонки. Кубок Мира 2014-15. Tour De Ski. Оберстдорф (Германия). Женщины. Пролог 3,2 км. СC [03.01] (2015) HDTV 1080i

21 | 8

3.89 ГБ

В этой теме нет новых непрочитанных сообщений. Лыжные гонки. Кубок Мира 2014-15. Tour De Ski. Оберстдорф (Германия). Мужчины. Гонка преследования 15 км. Кл[04.01] (2015) HDTVRip 720р

48 | 11

1.3 ГБ

В этой теме нет новых непрочитанных сообщений. Лыжные гонки. Кубок Мира 2014-15. Tour De Ski. Оберстдорф (Германия). Мужчины. Пролог 4,4 км. СС [03.01] (2015) HDTV 1080i

39 | 6

4.23 ГБ

В этой теме нет новых непрочитанных сообщений. Лыжные гонки. Кубок Мира 2014-2015. Tour De Ski. Тоблах (Италия). Женщины. Гонка преследования 15 км. СС [08.01] (2015) DVBRip

34 | 53

1.55 ГБ

В этой теме нет новых непрочитанных сообщений. Лыжные гонки. Кубок Мира 2014-2015. Tour De Ski. Тоблах (Италия). Мужчины, 25 км, гонка преследования. СС [08.01] (2015) HDRip

70 | 30

1.03 ГБ




Вы не можете начинать темы
Вы не можете отвечать на сообщения
Вы не можете редактировать свои сообщения
Вы не можете удалять свои сообщения
Вы не можете добавлять вложения

Перейти:  
Для Мосгорсуда, Роскомнадзора и рекламодателей: mosgorsud-torrent[собачка]yandex.ru
 Вход
ppkBB3cker v.2 © 2008-2014 @ PPK
[ Time : 0.027s | 15 Queries | GZIP : Off ]

Торрент трекер RUTOR.IN, Не можете зайти на rutor.org? Какой новый адрес рутор? Какое зеркало рутор? Не работает rutor.org и зеркала? Тогда наш торрент специально для вас. Rutor.in неофициальное зеркало rutor. В случае если у Вас заблокирован rutor или вдруг Вы не можете на него зайти, то Вы без труда сможете скачать бесплатно и без рекламы последние новинки кино, игр, сериалов и прочего у нас, на Rutor.in. Не нужно использовать прокси, чтобы зайти на рутор, достаточно воспользоваться нашим ресурсом. Все новые фильмы, игры, сериалы, книги и музыка за 2013 и 2014 годы через торрент бесплатно. Скачивайте фильмы в хорошем качестве, игры для пк, xbox, playstation без регистрации. У нас вы найдете новые Зарубежные сериалы и Русские сериалы 2013, 2014, 2015 годов. Оставайтесь с нами, качайте любимые фильмы, игры, сериалы, книги и музыку.