img image001 image001 image001 image001 image001 image001 image001 image001 image001 image001 image001 image001 image001 image001 image001

Planets Sun Sun Sun
Статистика раздачи
Автор: Nickolas3434 | Размер: 668.74 МБ | Добавлен: 07 янв 2015
Раздают: 25    Качают: 5
Скачать торрент
Скачать торрент
Описание торрента

СообщениеДобавлено: 07 янв 2015 

Кубок Англии 2014-2015 / Match Of The Day / 3-й раунд / Обзор матчей / FA Cup Highlights

Вид спорта: футбол
Участник: ФК Англии
Дата/Год выпуска: 2015
Язык комментариев: английский
Описание: обзор субботних матчей, третьего раунда Кубка Англии
Автор рипа/записи: surelynotme
Качество: HDTVRip
Формат видео: Mp4
Видео кодек: H264
Аудио кодек: AAC
Видео: 704x400 (1.78:1), 25 fps, ~1300 kbps avg, 0.185 bit/pixel
Аудио: 48 kHz, AAC-LC, 2 ch, ~128 kbps avg

01:05:00
Полное имя : 2015.01.03.MOTD.hdtv.x264.mp4
Формат : MPEG-4
Профиль формата : Base Media / Version 2
Идентификатор кодека : mp42
Размер файла : 669 Мбайт
Продолжительность : 1 ч. 5 м.
Режим общего битрейта : Переменный
Общий поток : 1431 Кбит/сек
Дата кодирования : UTC 2015-01-03 22:58:15
Дата пометки : UTC 2015-01-03 23:57:50
Программа кодирования : HandBrake 0.9.9 2013052900
Видео
Идентификатор : 1
Формат : AVC
Формат/Информация : Advanced Video Codec
Профиль формата : High@L3.0
Параметр CABAC формата : Да
Параметр ReFrames формата : 4 кадра
Идентификатор кодека : avc1
Идентификатор кодека/Информация : Advanced Video Coding
Продолжительность : 1 ч. 5 м.
Битрейт : 1300 Кбит/сек
Ширина : 704 пикселя
Высота : 400 пикселей
Соотношение сторон : 16:9
Режим частоты кадров : Постоянный
Частота кадров : 25,000 кадров/сек
Цветовое пространство : YUV
Субдискретизация насыщенности : 4:2:0
Битовая глубина : 8 бит
Тип развёртки : Прогрессивная
Бит/(Пиксели*Кадры) : 0.185
Размер потока : 607 Мбайт (91%)
Библиотека кодирования : x264 core 130 r2273 b3065e6
Настройки программы : cabac=1 / ref=3 / deblock=1:0:0 / analyse=0x3:0x113 / me=hex / subme=7 / psy=1 / psy_rd=1.00:0.00 / mixed_ref=1 / me_range=16 / chroma_me=1 / trellis=1 / 8x8dct=1 / cqm=0 / deadzone=21,11 / fast_pskip=1 / chroma_qp_offset=-2 / threads=6 / lookahead_threads=1 / sliced_threads=0 / nr=0 / decimate=1 / interlaced=0 / bluray_compat=0 / constrained_intra=0 / bframes=3 / b_pyramid=2 / b_adapt=1 / b_bias=0 / direct=1 / weightb=1 / open_gop=0 / weightp=2 / keyint=250 / keyint_min=25 / scenecut=40 / intra_refresh=0 / rc_lookahead=40 / rc=abr / mbtree=1 / bitrate=1300 / ratetol=1.0 / qcomp=0.60 / qpmin=0 / qpmax=69 / qpstep=4 / vbv_maxrate=12500 / vbv_bufsize=12500 / nal_hrd=none / ip_ratio=1.40 / aq=1:1.00
Дата кодирования : UTC 2015-01-03 22:58:15
Дата пометки : UTC 2015-01-03 23:57:50
Основные цвета : BT.709
Характеристики трансфера : BT.709
Коэффициенты матрицы : BT.709
Аудио
Идентификатор : 2
Формат : AAC
Формат/Информация : Advanced Audio Codec
Профиль формата : LC
Идентификатор кодека : 40
Продолжительность : 1 ч. 5 м.
Битрейт : 128 Кбит/сек
Каналы : 2 канала
Расположение каналов : Front: L R
Частота : 48,0 КГц
Метод сжатия : С потерями
Размер потока : 59,8 Мбайт (9%)
Язык : English
Дата кодирования : UTC 2015-01-03 22:58:15
Дата пометки : UTC 2015-01-03 23:57:49



   Похожие торренты   Торрент   Размер 
В этой теме нет новых непрочитанных сообщений. Футбол. Кубок Англии 2013-14. Match of the Day. 3-й раунд. Обзор матчей [04.01] (2015) HDTVRip

86 | 7

811.31 МБ

В этой теме нет новых непрочитанных сообщений. Футбол. Кубок Англии 2013-14. Match of the Day. 4-й раунд. Обзор матчей [24-25.01] (2015) HDTVRip 720p

26 | 2

3.77 ГБ

В этой теме нет новых непрочитанных сообщений. Футбол. Чемпионат Англии 2013-14. Match of the Day. 21-й тур. Обзор матчей [11.01] (2015) HDTVRip

55 | 2

660.41 МБ

В этой теме нет новых непрочитанных сообщений. Футбол. Чемпионат Англии 2013-14. Match of the Day. 21-й тур. Обзор матчей [10.01] (2015) HDTVRip 720p

50 | 2

1.98 ГБ

В этой теме нет новых непрочитанных сообщений. Футбол. Чемпионат Англии 2013-14. Match of the Day. 22-й тур. Обзор матчей [17-18.01] (2015) HDTVRip 720p

101 | 29

3.09 ГБ

В этой теме нет новых непрочитанных сообщений. Футбол. Чемпионат Англии 2013-14. Match of the Day. 20-й тур. Обзор матчей [01.01] (2015) HDTVRip 720p

122 | 24

2.37 ГБ

В этой теме нет новых непрочитанных сообщений. Футбол. Чемпионат Англии 2013-14. Match of the Day. 22-й тур. Обзор матчей [31.01-01.02] (2015) HDTVRip 720p

10 | 5

3.45 ГБ




Вы не можете начинать темы
Вы не можете отвечать на сообщения
Вы не можете редактировать свои сообщения
Вы не можете удалять свои сообщения
Вы не можете добавлять вложения

Перейти:  
Для Мосгорсуда, Роскомнадзора и рекламодателей: mosgorsud-torrent[собачка]yandex.ru
 Вход
ppkBB3cker v.2 © 2008-2014 @ PPK
[ Time : 0.029s | 15 Queries | GZIP : Off ]

Торрент трекер RUTOR.IN, Не можете зайти на rutor.org? Какой новый адрес рутор? Какое зеркало рутор? Не работает rutor.org и зеркала? Тогда наш торрент специально для вас. Rutor.in неофициальное зеркало rutor. В случае если у Вас заблокирован rutor или вдруг Вы не можете на него зайти, то Вы без труда сможете скачать бесплатно и без рекламы последние новинки кино, игр, сериалов и прочего у нас, на Rutor.in. Не нужно использовать прокси, чтобы зайти на рутор, достаточно воспользоваться нашим ресурсом. Все новые фильмы, игры, сериалы, книги и музыка за 2013 и 2014 годы через торрент бесплатно. Скачивайте фильмы в хорошем качестве, игры для пк, xbox, playstation без регистрации. У нас вы найдете новые Зарубежные сериалы и Русские сериалы 2013, 2014, 2015 годов. Оставайтесь с нами, качайте любимые фильмы, игры, сериалы, книги и музыку.