img image001 image001 image001 image001 image001 image001 image001 image001 image001 image001 image001 image001 image001 image001 image001

Planets Sun Sun Sun
Статистика раздачи
Автор: Nickolas3434 | Размер: 4.03 ГБ | Добавлен: 11 янв 2015
Раздают: 34    Качают: 6
Скачать торрент
Скачать торрент
Описание торрента

СообщениеДобавлено: 11 янв 2015 

Кубок Мира 2014-15. 4-й этап. Оберхоф (Германия). Женщины. Спринт 7,5 км
Вид спорта: Биатлон
Комментарий: Профессиональный
Язык комментариев: Русский (Дмитрий Терехов) / Английский
Описание: Кубок Мира 2014-15. 4-й этап. Оберхоф (Германия). Женщины. Спринт 7,5 км.
Автор рипа: sanchez2011
Качество: HDTV
Формат: TS
Видео кодек: AVC
Аудио кодек: MP2
Видео: MPEG4 Video (H264) 1920x1080 (16:9) 25fps 8165kbps
Аудио: MPEG Audio 48000Hz stereo 192kbps (Русский)
Аудио: MPEG Audio 48000Hz stereo 192kbps (Английский)
Продолжительность: 01:04:04
Код:
General
ID                    : 1 (0x1)
Complete name              : E:TorrentБиатлон. Сезон 2014-2015Кубок Мира 2014-15. 4-й этап. Оберхоф (Германия). Женщины. Спринт 7,5 км. Евроспорт.ts
Format                  : MPEG-TS
File size                : 4.03 GiB
Duration                 : 1h 4mn
Overall bit rate mode          : Variable
Overall bit rate             : 8 998 Kbps
Video
ID                    : 513 (0x201)
Menu ID                 : 1 (0x1)
Format                  : AVC
Format/Info               : Advanced Video Codec
Format profile              : High@L4.0
Format settings, CABAC          : Yes
Format settings, ReFrames        : 4 frames
Codec ID                 : 27
Duration                 : 1h 4mn
Bit rate                 : 8 165 Kbps
Width                  : 1 920 pixels
Height                  : 1 080 pixels
Display aspect ratio           : 16:9
Frame rate                : 25.000 fps
Standard                 : Component
Color space               : YUV
Chroma subsampling            : 4:2:0
Bit depth                : 8 bits
Scan type                : Interlaced
Scan order                : Top Field First
Bits/(Pixel*Frame)            : 0.158
Stream size               : 3.65 GiB (91%)
Color primaries             : BT.709
Transfer characteristics         : BT.709
Matrix coefficients           : BT.709
Audio #1
ID                    : 514 (0x202)
Menu ID                 : 1 (0x1)
Format                  : MPEG Audio
Format version              : Version 1
Format profile              : Layer 2
Codec ID                 : 3
Duration                 : 1h 4mn
Bit rate mode              : Constant
Bit rate                 : 192 Kbps
Channel(s)                : 2 channels
Sampling rate              : 48.0 KHz
Compression mode             : Lossy
Stream size               : 88.0 MiB (2%)
Language                 : Russian
Audio #2
ID                    : 515 (0x203)
Menu ID                 : 1 (0x1)
Format                  : MPEG Audio
Format version              : Version 1
Format profile              : Layer 2
Codec ID                 : 3
Duration                 : 1h 4mn
Bit rate mode              : Constant
Bit rate                 : 192 Kbps
Channel(s)                : 2 channels
Sampling rate              : 48.0 KHz
Compression mode             : Lossy
Stream size               : 88.0 MiB (2%)
Language                 : English



   Похожие торренты   Торрент   Размер 
В этой теме нет новых непрочитанных сообщений. Биатлон. Кубок мира 2013/14. 4 этап. Спринт. Женщины. Оберхоф (Германия) [Спорт 1 HD] [03.01] (2014) HDTV 1080i от MediaClub

0 | 1

3.1 ГБ

В этой теме нет новых непрочитанных сообщений. Биатлон. Кубок Мира 2014-15. 4-й этап. Оберхоф (Германия). Мужчины. Спринт 10 км [10.01] (2015) HDTV 1080i

58 | 47

5.93 ГБ

В этой теме нет новых непрочитанных сообщений. Биатлон. Кубок Мира 2014-15. 4-й этап. Оберхоф (Германия). Женщины. Эстафета 4x6 км [07.01] (2015) HDTV 1080i

51 | 14

6.5 ГБ

В этой теме нет новых непрочитанных сообщений. Биатлон. Кубок Мира 2014-15. 4-й этап. Оберхоф (Германия). Женщины. Спринт 7,5 км [09.01] (2015) HDTVRip

123 | 11

1.22 ГБ

В этой теме нет новых непрочитанных сообщений. Биатлон. Кубок Мира 2014-15. 4-й этап. Оберхоф (Германия). Женщины. Спринт 7,5 км [09.01] (2015) WEB-DL 720p

149 | 10

1.43 ГБ

В этой теме нет новых непрочитанных сообщений. Биатлон. Кубок Мира 2014-15. 4-й этап. Оберхоф (Германия). Женщины. Масс-старт 12,5 км [11.01] (2015) HDTV 1080i

13 | 3

4.48 ГБ

В этой теме нет новых непрочитанных сообщений. Биатлон. Кубок Мира 2014-15. 4-й этап. Оберхоф (Германия). Женщины. Спринт 7,5 км [09.01] (2015) HDTVRip 720p | 50 FPS

31 | 13

2.39 ГБ




Вы не можете начинать темы
Вы не можете отвечать на сообщения
Вы не можете редактировать свои сообщения
Вы не можете удалять свои сообщения
Вы не можете добавлять вложения

Перейти:  
Для Мосгорсуда, Роскомнадзора и рекламодателей: mosgorsud-torrent[собачка]yandex.ru
 Вход
ppkBB3cker v.2 © 2008-2014 @ PPK
[ Time : 0.030s | 15 Queries | GZIP : Off ]

Торрент трекер RUTOR.IN, Не можете зайти на rutor.org? Какой новый адрес рутор? Какое зеркало рутор? Не работает rutor.org и зеркала? Тогда наш торрент специально для вас. Rutor.in неофициальное зеркало rutor. В случае если у Вас заблокирован rutor или вдруг Вы не можете на него зайти, то Вы без труда сможете скачать бесплатно и без рекламы последние новинки кино, игр, сериалов и прочего у нас, на Rutor.in. Не нужно использовать прокси, чтобы зайти на рутор, достаточно воспользоваться нашим ресурсом. Все новые фильмы, игры, сериалы, книги и музыка за 2013 и 2014 годы через торрент бесплатно. Скачивайте фильмы в хорошем качестве, игры для пк, xbox, playstation без регистрации. У нас вы найдете новые Зарубежные сериалы и Русские сериалы 2013, 2014, 2015 годов. Оставайтесь с нами, качайте любимые фильмы, игры, сериалы, книги и музыку.