img image001 image001 image001 image001 image001 image001 image001 image001 image001 image001 image001 image001 image001 image001 image001

Planets Sun Sun Sun
Статистика раздачи
Автор: Nickolas3434 | Размер: 808.36 МБ | Добавлен: 13 янв 2015
Раздают: 9    Качают: 4
Скачать торрент
Скачать торрент
Описание торрента

СообщениеДобавлено: 13 янв 2015 

Лыжные гонки. Кубок Мира 2014-2015. Tour De Ski. Валь-ди-Фьемме (Италия). Женщины. Масс-старт 10 км. Классика
Вид спорта: Лыжные гонки
Комментарий: Профессиональный
Язык комментариев: Русский (Романов) / Английский
Описание: Лыжные гонки. Кубок Мира 2014-2015. Tour De Ski. Валь-ди-Фьемме (Италия). Женщины. Масс-старт 10 км. Классика. Запись с повтора - гонка от старта до финиша спортсменки, занявшей 15 место.
Автор рипа: sanchez2011
Качество: DVB
Формат: MPEG-PS
Видео кодек: MPEG2
Аудио кодек: MP2
Видео: MPEG2 Video 720x576 (16:9) 25fps 2765kbps
Аудио: MPEG Audio Layer 2 48000Hz mono 192kbps
Аудио: MPEG Audio Layer 2 48000Hz mono 192kbps
Продолжительность: 00:35:11
General
Complete name : E:Лыжные гонки. Кубок Мира 2014-2015. Tour De Ski. Валь-ди-Фьемме (Италия). Женщины. Масс-старт 10 км. Классика.mpg
Format : MPEG-PS
File size : 808 MiB
Duration : 35mn 10s
Overall bit rate mode : Variable
Overall bit rate : 3 213 Kbps
Video
ID : 224 (0xE0)
Format : MPEG Video
Format version : Version 2
Format profile : Main@Main
Format settings, BVOP : Yes
Format settings, Matrix : Custom
Format settings, GOP : Variable
Duration : 35mn 10s
Bit rate mode : Variable
Bit rate : 2 765 Kbps
Maximum bit rate : 5 000 Kbps
Width : 720 pixels
Height : 576 pixels
Display aspect ratio : 16:9
Frame rate : 25.000 fps
Standard : PAL
Color space : YUV
Chroma subsampling : 4:2:0
Bit depth : 8 bits
Scan type : Interlaced
Scan order : Top Field First
Compression mode : Lossy
Bits/(Pixel*Frame) : 0.267
Time code of first frame : 00:00:00:00
Time code source : Group of pictures header
Stream size : 696 MiB (86%)
Audio #1
ID : 192 (0xC0)
Format : MPEG Audio
Format version : Version 1
Format profile : Layer 2
Duration : 35mn 10s
Bit rate mode : Constant
Bit rate : 192 Kbps
Channel(s) : 1 channel
Sampling rate : 48.0 KHz
Compression mode : Lossy
Stream size : 48.3 MiB (6%)
Audio #2
ID : 193 (0xC1)
Format : MPEG Audio
Format version : Version 1
Format profile : Layer 2
Duration : 35mn 10s
Bit rate mode : Constant
Bit rate : 192 Kbps
Channel(s) : 1 channel
Sampling rate : 48.0 KHz
Compression mode : Lossy
Stream size : 48.3 MiB (6%)



   Похожие торренты   Торрент   Размер 
В этой теме нет новых непрочитанных сообщений. Лыжные гонки. Кубок Мира 2014-2015. Tour De Ski. Валь-ди-Фьемме (Италия). Мужчины. Масс-старт 15 км. Классика [10.01] (2015) DVBRip

15 | 3

1.46 ГБ

В этой теме нет новых непрочитанных сообщений. Лыжные гонки. Кубок Мира 2014-2015. Tour De Ski. Валь-ди-Фьемме (Италия). Женщины. 9 км свободным стилем [11.01] (2015) DVBRip

21 | 3

1.06 ГБ

В этой теме нет новых непрочитанных сообщений. Лыжные гонки. Кубок Мира 2014-2015. Tour De Ski. Валь-ди-Фьемме (Италия). Мужчины. 9 км свободным стилем [11.01] (2015) DVBRip

32 | 3

981.92 МБ

В этой теме нет новых непрочитанных сообщений. Лыжные гонки . Тур де Ски 2012-2013. Валь-ди-Фьемме (Италия). Женщины. Масс-старт 10 км. К (2012) IPTVRip

0 | 2

522.25 МБ

В этой теме нет новых непрочитанных сообщений. Лыжные гонки. Кубок мира 2016-17. Тур де Ски. Валь-ди-Фьемм (Италия). Женщины. Масс-старт. Классический стиль [07.01] (2017) HDTV 1080i

0 | 3

3.12 ГБ

В этой теме нет новых непрочитанных сообщений. Лыжные гонки. Кубок Мира 2014-2015. Tour De Ski. Тоблах (Италия). Ж. М, Раздельный старт. Классика [07.01] (2015) IPTVRip

26 | 10

1.09 ГБ

В этой теме нет новых непрочитанных сообщений. Лыжные гонки. Кубок Мира 2014-2015. Tour De Ski. Тоблах (Италия). Женщины. Гонка преследования 15 км. СС [08.01] (2015) DVBRip

34 | 53

1.55 ГБ




Вы не можете начинать темы
Вы не можете отвечать на сообщения
Вы не можете редактировать свои сообщения
Вы не можете удалять свои сообщения
Вы не можете добавлять вложения

Перейти:  
Для Мосгорсуда, Роскомнадзора и рекламодателей: mosgorsud-torrent[собачка]yandex.ru
 Вход
ppkBB3cker v.2 © 2008-2014 @ PPK
[ Time : 0.046s | 16 Queries | GZIP : Off ]

cron