img image001 image001 image001 image001 image001 image001 image001 image001 image001 image001 image001 image001 image001 image001 image001

Planets Sun Sun Sun
Статистика раздачи
Автор: Nickolas3434 | Размер: 981.92 МБ | Добавлен: 13 янв 2015
Раздают: 32    Качают: 3
Скачать торрент
Скачать торрент
Описание торрента

СообщениеДобавлено: 13 янв 2015 

Лыжные гонки. Кубок Мира 2014-2015. Tour De Ski. Валь-ди-Фьемме (Италия). Мужчины. 9 км свободным стилем
Вид спорта: Лыжные гонки
Комментарий: Профессиональный
Язык комментариев: Русский (Всеволод Соловьев, Николай Панкратов) / Английский
Описание: Лыжные гонки. Кубок Мира 2014-2015. Tour De Ski. Валь-ди-Фьемме (Италия). Мужчины. 9 км свободным стилем. Трансляция началась с 4 минуты гонки. Цветочная церемония присутствует.
Автор рипа: sanchez2011
Качество: DVB
Формат: MPEG-PS
Видео кодек: MPEG2
Аудио кодек: MP2
Видео: MPEG2 Video 720x576 (16:9) 25fps 2723kbps
Аудио: MPEG Audio Layer 2 48000Hz mono 192kbps
Аудио: MPEG Audio Layer 2 48000Hz mono 192kbps
Продолжительность: 00:43:18
General
Complete name : E:Лыжные гонки. Кубок Мира 2014-2015. Tour De Ski. Валь-ди-Фьемме (Италия). Мужчины. 9 км свободным стилем.mpg
Format : MPEG-PS
File size : 982 MiB
Duration : 43mn 18s
Overall bit rate mode : Variable
Overall bit rate : 3 170 Kbps
Video
ID : 224 (0xE0)
Format : MPEG Video
Format version : Version 2
Format profile : Main@Main
Format settings, BVOP : Yes
Format settings, Matrix : Custom
Format settings, GOP : Variable
Duration : 43mn 18s
Bit rate mode : Variable
Bit rate : 2 723 Kbps
Maximum bit rate : 5 000 Kbps
Width : 720 pixels
Height : 576 pixels
Display aspect ratio : 16:9
Frame rate : 25.000 fps
Standard : PAL
Color space : YUV
Chroma subsampling : 4:2:0
Bit depth : 8 bits
Scan type : Interlaced
Scan order : Top Field First
Compression mode : Lossy
Bits/(Pixel*Frame) : 0.263
Time code of first frame : 00:00:00:00
Time code source : Group of pictures header
Stream size : 843 MiB (86%)
Audio #1
ID : 192 (0xC0)
Format : MPEG Audio
Format version : Version 1
Format profile : Layer 2
Duration : 43mn 18s
Bit rate mode : Constant
Bit rate : 192 Kbps
Channel(s) : 1 channel
Sampling rate : 48.0 KHz
Compression mode : Lossy
Stream size : 59.5 MiB (6%)
Audio #2
ID : 193 (0xC1)
Format : MPEG Audio
Format version : Version 1
Format profile : Layer 2
Duration : 43mn 18s
Bit rate mode : Constant
Bit rate : 192 Kbps
Channel(s) : 1 channel
Sampling rate : 48.0 KHz
Compression mode : Lossy
Stream size : 59.5 MiB (6%)



   Похожие торренты   Торрент   Размер 
В этой теме нет новых непрочитанных сообщений. Лыжные гонки. Кубок Мира 2014-2015. Tour De Ski. Валь-ди-Фьемме (Италия). Женщины. 9 км свободным стилем [11.01] (2015) DVBRip

21 | 3

1.06 ГБ

В этой теме нет новых непрочитанных сообщений. Лыжные гонки. Кубок Мира 2014-2015. Tour De Ski. Валь-ди-Фьемме (Италия). Мужчины. Масс-старт 15 км. Классика [10.01] (2015) DVBRip

15 | 3

1.46 ГБ

В этой теме нет новых непрочитанных сообщений. Лыжные гонки. Кубок Мира 2014-2015. Tour De Ski. Валь-ди-Фьемме (Италия). Женщины. Масс-старт 10 км. Классика [10.01] (2015) DVBRip

9 | 4

808.36 МБ

В этой теме нет новых непрочитанных сообщений. Лыжные гонки. Кубок мира 2015-16. 3-й этап. Давос (Швейцария). Мужчины. 30 км свободным стилем [12.12] (2015) HDTVRip

11 | 1

954.97 МБ

В этой теме нет новых непрочитанных сообщений. Лыжные гонки. Кубок мира 2015-16. 3-й этап. Давос (Швейцария). Мужчины. 30 км свободным стилем [12.12] (2015) HDTV 1080i

12 | 4

5.66 ГБ

В этой теме нет новых непрочитанных сообщений. Лыжные гонки. Кубок Мира 2014-2015. Tour De Ski. Тоблах (Италия). Женщины. Гонка преследования 15 км. СС [08.01] (2015) DVBRip

34 | 53

1.55 ГБ

В этой теме нет новых непрочитанных сообщений. Лыжные гонки. Кубок Мира 2014-2015. Tour De Ski. Тоблах (Италия). Мужчины, 25 км, гонка преследования. СС [08.01] (2015) HDRip

70 | 30

1.03 ГБ




Вы не можете начинать темы
Вы не можете отвечать на сообщения
Вы не можете редактировать свои сообщения
Вы не можете удалять свои сообщения
Вы не можете добавлять вложения

Перейти:  
Для Мосгорсуда, Роскомнадзора и рекламодателей: mosgorsud-torrent[собачка]yandex.ru
 Вход
ppkBB3cker v.2 © 2008-2014 @ PPK
[ Time : 0.026s | 15 Queries | GZIP : Off ]

Торрент трекер RUTOR.IN, Не можете зайти на rutor.org? Какой новый адрес рутор? Какое зеркало рутор? Не работает rutor.org и зеркала? Тогда наш торрент специально для вас. Rutor.in неофициальное зеркало rutor. В случае если у Вас заблокирован rutor или вдруг Вы не можете на него зайти, то Вы без труда сможете скачать бесплатно и без рекламы последние новинки кино, игр, сериалов и прочего у нас, на Rutor.in. Не нужно использовать прокси, чтобы зайти на рутор, достаточно воспользоваться нашим ресурсом. Все новые фильмы, игры, сериалы, книги и музыка за 2013 и 2014 годы через торрент бесплатно. Скачивайте фильмы в хорошем качестве, игры для пк, xbox, playstation без регистрации. У нас вы найдете новые Зарубежные сериалы и Русские сериалы 2013, 2014, 2015 годов. Оставайтесь с нами, качайте любимые фильмы, игры, сериалы, книги и музыку.