img image001 image001 image001 image001 image001 image001 image001 image001 image001 image001 image001 image001 image001 image001 image001

Planets Sun Sun Sun
Статистика раздачи
Автор: Nickolas3434 | Размер: 5.54 ГБ | Добавлен: 22 янв 2015
Раздают: 18    Качают: 4
Скачать торрент
Скачать торрент
Описание торрента

СообщениеДобавлено: 22 янв 2015 

NHL 2014-15, Regular Season | Chicago Blackhawks vs. Pittsburgh Penguins

Вид спорта: Хоккей
Участники:
Chicago Blackhawks vs. Pittsburgh Penguins
Дата/Год выпуска:
21/01/2015
Комментатор:
Руслан Берлин

Описание:
Матч №692 регулярного чемпионата NHL 2014-2015
Автор рипа/записи:
tommyganZ
Качество:
HDTV
Формат видео:
TS
Видео:
MPEG4 Video (H264) 1920x1080 25.00fps 6860 kbps
Аудио 1:
RUS; MP2; 48000 Hz; 192 kbps; Stereo; 2 channels
Аудио 2:
ENG; MP2; 48000 Hz; 192 kbps; Stereo; 2 channels


Формат : MPEG-TS
Размер файла : 5,54 Гбайт
Продолжительность : 1 ч. 44 м.
Режим общего битрейта : Постоянный
Общий поток : 7565 Кбит/сек
Видео
Идентификатор : 70 (0x46)
Идентификатор меню : 1 (0x1)
Формат : AVC
Формат/Информация : Advanced Video Codec
Профиль формата : High@L4.0
Параметр CABAC формата : Да
Параметр ReFrames формата : 3 кадра
Идентификатор кодека : 27
Продолжительность : 1 ч. 44 м.
Вид битрейта : Постоянный
Битрейт : 6860 Кбит/сек
Ширина : 1920 пикселей
Высота : 1080 пикселей
Соотношение сторон : 16:9
Частота кадров : 25,000 кадров/сек
Цветовое пространство : YUV
Субдискретизация насыщенности : 4:2:0
Битовая глубина : 8 бит
Тип развёртки : MBAFF
Порядок развёртки : Верхнее поле первое
Бит/(Пиксели*Кадры) : 0.132
Размер потока : 4,98 Гбайт (90%)
Основные цвета : BT.709-5, BT.1361, IEC 61966-2-4, SMPTE RP177
Характеристики трансфера : BT.709-5, BT.1361
Коэффициенты матрицы : BT.709-5, BT.1361, IEC 61966-2-4 709, SMPTE RP177
Аудио #1
Идентификатор : 68 (0x44)
Идентификатор меню : 1 (0x1)
Формат : MPEG Audio
Версия формата : Version 1
Профиль формата : Layer 2
Идентификатор кодека : 3
Продолжительность : 1 ч. 44 м.
Вид битрейта : Постоянный
Битрейт : 192 Кбит/сек
Каналы : 2 канала
Частота : 48,0 КГц
Метод сжатия : С потерями
Задержка видео : -72 мс.
Размер потока : 144 Мбайт (3%)
Аудио #2
Идентификатор : 69 (0x45)
Идентификатор меню : 1 (0x1)
Формат : MPEG Audio
Версия формата : Version 1
Профиль формата : Layer 2
Идентификатор кодека : 3
Продолжительность : 1 ч. 44 м.
Вид битрейта : Постоянный
Битрейт : 192 Кбит/сек
Каналы : 2 канала
Частота : 48,0 КГц
Метод сжатия : С потерями
Задержка видео : -72 мс.
Размер потока : 144 Мбайт (3%)
01:44:45


SО 3:2



   Похожие торренты   Торрент   Размер 
В этой теме нет новых непрочитанных сообщений. Хоккей. NHL 14/15, RS: Pittsburgh Penguins vs. Chicago Blackhawks [15.02] (2015) HDStr 720p | 60 fps

7 | 2

4.02 ГБ

В этой теме нет новых непрочитанных сообщений. Хоккей. NHL 14/15, RS: Pittsburgh Penguins vs. Chicago Blackhawks [36я студия] [15.02] (2015) HDStr 720p

1 | 2

5.01 ГБ

В этой теме нет новых непрочитанных сообщений. Хоккей. NHL 13/14, RS: Chicago Blackhawks vs. Pittsburgh Penguins [30.03] (2014) HDStr 720p | 60 fps

15 | 4

3.04 ГБ

В этой теме нет новых непрочитанных сообщений. Хоккей. NHL 13/14, RS: Stadium Series: Pittsburgh Penguins vs. Chicago Blackhawks [01.03] (2014) HDStr 720p | 60 fps

26 | 6

3.79 ГБ

В этой теме нет новых непрочитанных сообщений. Хоккей. NHL 14/15, RS: Pittsburgh Penguins vs Vancouver Canucks [07.02] (2015) HDTV 1080i

1 | 3

5.97 ГБ

В этой теме нет новых непрочитанных сообщений. Хоккей. NHL '15, SC Final, games 1- : Tampa Bay Lightning vs. Chicago Blackhawks [Setanta] [03.06] (2015) HDTV 1080i

21 | 11

5.77 ГБ

В этой теме нет новых непрочитанных сообщений. Хоккей. NHL 14/15, RS: Winter Classic 2015: Chicago Blackhawks vs. Washington Capitals [01.01] (2015) HDTV 1080i

20 | 3

6.64 ГБ




Вы не можете начинать темы
Вы не можете отвечать на сообщения
Вы не можете редактировать свои сообщения
Вы не можете удалять свои сообщения
Вы не можете добавлять вложения

Перейти:  
Для Мосгорсуда, Роскомнадзора и рекламодателей: mosgorsud-torrent[собачка]yandex.ru
 Вход
ppkBB3cker v.2 © 2008-2014 @ PPK
[ Time : 0.048s | 15 Queries | GZIP : Off ]

cron