img image001 image001 image001 image001 image001 image001 image001 image001 image001 image001 image001 image001 image001 image001 image001

Planets Sun Sun Sun
Статистика раздачи
Автор: Nickolas3434 | Размер: 683.41 МБ | Добавлен: 07 фев 2015
Раздают: 27    Качают: 28
Скачать торрент
Скачать торрент
Описание торрента

СообщениеДобавлено: 07 фев 2015 

Кубок Мира 2014-15. 7-й этап. Нове-Место (Чехия)
Супермикст


Вид спорта: Биатлон
Комментарий: Профессиональный
Язык комментариев: Русский (Терехов) / Английский
Описание: Кубок Мира 2014-15. 7-й этап. Нове-Место (Чехия). Супермикст.
Автор рипа: sanchez2011
Качество: SATRip
Формат: AVI
Видео кодек: XviD
Аудио кодек: MP3
Видео: MPEG4 Visual (H263) 720x400 (16:9) 25fps 1700kbps
Аудио: MPEG Audio Layer 3 48000Hz mono 128kbps (Русский)
Аудио: MPEG Audio Layer 3 48000Hz mono 128kbps (Английский)
Продолжительность: 00:48:38

General
Complete name : E:TorrentБиатлон. Сезон 2014-2015Кубок Мира 2014-15. 6-й этап. Антхольц-Антерсельва (Италия). Женщины. Эстафета 4x6 км.avi
Format : AVI
Format/Info : Audio Video Interleave
File size : 1.09 GiB
Duration : 1h 19mn
Overall bit rate : 1 970 Kbps
Writing application : VirtualDubMod 1.5.10.2 (build 2540/release)
Writing library : VirtualDubMod build 2540/release
Video
ID : 0
Format : MPEG-4 Visual
Format profile : Advanced Simple@L5
Format settings, BVOP : 2
Format settings, QPel : No
Format settings, GMC : No warppoints
Format settings, Matrix : Default (H.263)
Codec ID : XVID
Codec ID/Hint : XviD
Duration : 1h 19mn
Bit rate : 1 699 Kbps
Width : 720 pixels
Height : 400 pixels
Display aspect ratio : 16:9
Frame rate : 25.000 fps
Color space : YUV
Chroma subsampling : 4:2:0
Bit depth : 8 bits
Scan type : Progressive
Compression mode : Lossy
Bits/(Pixel*Frame) : 0.236
Stream size : 965 MiB (86%)
Writing library : XviD 65
Audio #1
ID : 1
Format : MPEG Audio
Format version : Version 1
Format profile : Layer 3
Codec ID : 55
Codec ID/Hint : MP3
Duration : 1h 19mn
Bit rate mode : Constant
Bit rate : 128 Kbps
Channel(s) : 1 channel
Sampling rate : 48.0 KHz
Compression mode : Lossy
Stream size : 72.7 MiB (6%)
Alignment : Aligned on interleaves
Interleave, duration : 40 ms (1.00 video frame)
Interleave, preload duration : 504 ms
Writing library : LAME3.100Н
Audio #2
ID : 2
Format : MPEG Audio
Format version : Version 1
Format profile : Layer 3
Codec ID : 55
Codec ID/Hint : MP3
Duration : 1h 19mn
Bit rate mode : Constant
Bit rate : 128 Kbps
Channel(s) : 1 channel
Sampling rate : 48.0 KHz
Compression mode : Lossy
Stream size : 72.7 MiB (6%)
Alignment : Aligned on interleaves
Interleave, duration : 40 ms (1.00 video frame)
Interleave, preload duration : 504 ms
Writing library : LAME3.100Н
[/hide]



   Похожие торренты   Торрент   Размер 
В этой теме нет новых непрочитанных сообщений. Биатлон. Кубок Мира 2014-15. 7-й этап. Нове-Место (Чехия). Супермикст [06.02] (2015) WEB-DL 720p

94 | 40

1.02 ГБ

В этой теме нет новых непрочитанных сообщений. Биатлон. Кубок Мира 2014-15. 7-й этап. Нове-Место (Чехия). Супермикст [06.02] (2015) HDTV 1080i

31 | 43

4.89 ГБ

В этой теме нет новых непрочитанных сообщений. Биатлон. Кубок Мира 2014-15. 7-й этап. Нове-Место (Чехия). Супермикст [06.02] (2015) HDTVRip 720p | 50 fps

37 | 32

1.75 ГБ

В этой теме нет новых непрочитанных сообщений. Биатлон. Кубок Мира 2014-15. 7-й этап. Нове-Место (Чехия). Смешанная эстафета 2x6+2x7.5 км [06.02] (2015) WEB-DL 720p

92 | 11

1.43 ГБ

В этой теме нет новых непрочитанных сообщений. Биатлон. Кубок Мира 2014-15. 7-й этап. Нове-Место (Чехия). Мужчины. Спринт 10 км [07.02] (2015) HDTVRip

123 | 18

1.24 ГБ

В этой теме нет новых непрочитанных сообщений. Биатлон. Кубок Мира 2014-15. 7-й этап. Нове-Место (Чехия). Женщины. Спринт 7,5 км [07.02] (2015) HDTVRip

72 | 18

1.1 ГБ

В этой теме нет новых непрочитанных сообщений. Биатлон. Кубок Мира 2014-15. 7-й этап. Нове-Место (Чехия). Смешанная эстафета 2x6+2x7.5 км [06.02] (2015) HDTV 1080i

12 | 3

6.99 ГБ




Вы не можете начинать темы
Вы не можете отвечать на сообщения
Вы не можете редактировать свои сообщения
Вы не можете удалять свои сообщения
Вы не можете добавлять вложения

Перейти:  
Для Мосгорсуда, Роскомнадзора и рекламодателей: mosgorsud-torrent[собачка]yandex.ru
 Вход
ppkBB3cker v.2 © 2008-2014 @ PPK
[ Time : 0.556s | 15 Queries | GZIP : Off ]

Торрент трекер RUTOR.IN, Не можете зайти на rutor.org? Какой новый адрес рутор? Какое зеркало рутор? Не работает rutor.org и зеркала? Тогда наш торрент специально для вас. Rutor.in неофициальное зеркало rutor. В случае если у Вас заблокирован rutor или вдруг Вы не можете на него зайти, то Вы без труда сможете скачать бесплатно и без рекламы последние новинки кино, игр, сериалов и прочего у нас, на Rutor.in. Не нужно использовать прокси, чтобы зайти на рутор, достаточно воспользоваться нашим ресурсом. Все новые фильмы, игры, сериалы, книги и музыка за 2013 и 2014 годы через торрент бесплатно. Скачивайте фильмы в хорошем качестве, игры для пк, xbox, playstation без регистрации. У нас вы найдете новые Зарубежные сериалы и Русские сериалы 2013, 2014, 2015 годов. Оставайтесь с нами, качайте любимые фильмы, игры, сериалы, книги и музыку.