img image001 image001 image001 image001 image001 image001 image001 image001 image001 image001 image001 image001 image001 image001 image001

Planets Sun Sun Sun
Статистика раздачи
Автор: Nickolas3434 | Размер: 14 ГБ | Добавлен: 11 фев 2015
Раздают: 6    Качают: 2
Скачать торрент
Скачать торрент
Описание торрента

СообщениеДобавлено: 11 фев 2015 


Чемпионат Испании 2014-15 / 22-й тур / Атлетико Мадрид - Реал Мадрид




Год Выпуска:2015
Вид Спорта:Футбол
Описание:Стадион: Висенте Кальдерон (Мадрид, Испания)
Главный судья: Давид Фернандес Борбалан (Альмерия, Испания)
Комментарий:Гутцайт
Язык Комментария:Русский
Продолжительность:52 м. + 49 м.
Релиз:Jora879
Качество:HDTV; Формат:MPEG-TS; Видео Кодек:H264; Аудио Кодек:mp2
Видео:1920x1080 (16/9), 30 fps, 18 Мбит/сек; Аудио:224 Kbps, 48 KHz, 2 channels




4-0




Общее
Идентификатор : 1 (0x1)
Полное имя : 1 тайм.ts
Формат : MPEG-TS
Размер файла : 7,24 Гбайт
Продолжительность : 52 м.
Режим общего битрейта : Переменный
Общий поток : 19,6 Мбит/сек
Видео
Идентификатор : 256 (0x100)
Идентификатор меню : 1 (0x1)
Формат : MPEG Video
Версия формата : Version 2
Профиль формата : Main@High
Параметр BVOP формата : Нет
Параметр матрицы формата : По умолчанию
Параметр GOP формата : N=12
Идентификатор кодека : 2
Продолжительность : 52 м.
Вид битрейта : Переменный
Битрейт : 18,5 Мбит/сек
Максимальный битрейт : 18,0 Мбит/сек
Ширина : 1920 пикселей
Высота : 1080 пикселей
Соотношение сторон : 16:9
Частота кадров : 30,000 кадров/сек
Цветовое пространство : YUV
Субдискретизация насыщенности : 4:2:0
Битовая глубина : 8 бит
Тип развёртки : Прогрессивная
Метод сжатия : С потерями
Бит/(Пиксели*Кадры) : 0.297
Временной код первого кадра : 00:00:00:00
Оригинал временного кода : Group of pictures header
Размер потока : 6,81 Гбайт (94%)
Gop_OpenClosed_FirstFrame : Closed
Аудио
Идентификатор : 257 (0x101)
Идентификатор меню : 1 (0x1)
Формат : MPEG Audio
Версия формата : Version 1
Профиль формата : Layer 2
Идентификатор кодека : 3
Продолжительность : 52 м.
Вид битрейта : Постоянный
Битрейт : 192 Кбит/сек
Каналы : 2 канала
Частота : 44,1 КГц
Метод сжатия : С потерями
Задержка видео : -11 мс.
Размер потока : 72,5 Мбайт (1%)
Язык : English
Меню
Идентификатор : 4096 (0x1000)
Идентификатор меню : 1 (0x1)
Продолжительность : 52 м.
Список : 256 (0x100) (MPEG Video) / 257 (0x101) (MPEG Audio, English)
Язык : / English
Название сервиса : 20150207175509
Поставщик сервиса : FFmpeg
Тип сервиса : digital television



   Похожие торренты   Торрент   Размер 
В этой теме нет новых непрочитанных сообщений. Футбол. Чемпионат Испании 2014-15. 22-й тур. Атлетико Мадрид - Реал Мадрид [07.02] (2015) HDTVRip 720p | 50 fps

405 | 126

3.3 ГБ

В этой теме нет новых непрочитанных сообщений. Футбол. Чемпионат Испании 2015-2016. 7-й тур. Атлетико Мадрид - Реал Мадрид [04.10] (2015) HDTV 1080i

74 | 10

11.41 ГБ

В этой теме нет новых непрочитанных сообщений. Футбол. Чемпионат Испании 2013-14. 26 тур. Атлетико Мадрид - Реал Мадрид [02.03] (2014) SATRip

104 | 14

1.61 ГБ

В этой теме нет новых непрочитанных сообщений. Футбол. Кубок Испании 2014-15. Copa Del Rey. 1/8 финала. Ответный матч. Атлетико Мадрид - Реал Мадрид [15.01] (2015) HDTV 1080i

42 | 17

8.86 ГБ

В этой теме нет новых непрочитанных сообщений. Футбол. Кубок Испании 2014-15. Copa Del Rey. 1/8 финала. Первый матч. Атлетико Мадрид - Реал Мадрид [07.01] (2015) HDTV 1080i

49 | 12

9.1 ГБ

В этой теме нет новых непрочитанных сообщений. Футбол. Суперкубок Испании. 1-й матч. Реал (Мадрид) - Атлетико (Мадрид) Спорт 1 HD [20.08] (2014) HDTV 1080i от MediaClub

1 | 2

8.05 ГБ

В этой теме нет новых непрочитанных сообщений. Футбол. Чемпионат Испании 2012-13. 33-й тур. Атлетико Мадрид - Реал Мадрид (2013) SATRip

0 | 1

1.37 ГБ




Вы не можете начинать темы
Вы не можете отвечать на сообщения
Вы не можете редактировать свои сообщения
Вы не можете удалять свои сообщения
Вы не можете добавлять вложения

Перейти:  
Для Мосгорсуда, Роскомнадзора и рекламодателей: mosgorsud-torrent[собачка]yandex.ru
 Вход
ppkBB3cker v.2 © 2008-2014 @ PPK
[ Time : 0.556s | 14 Queries | GZIP : Off ]

Торрент трекер RUTOR.IN, Не можете зайти на rutor.org? Какой новый адрес рутор? Какое зеркало рутор? Не работает rutor.org и зеркала? Тогда наш торрент специально для вас. Rutor.in неофициальное зеркало rutor. В случае если у Вас заблокирован rutor или вдруг Вы не можете на него зайти, то Вы без труда сможете скачать бесплатно и без рекламы последние новинки кино, игр, сериалов и прочего у нас, на Rutor.in. Не нужно использовать прокси, чтобы зайти на рутор, достаточно воспользоваться нашим ресурсом. Все новые фильмы, игры, сериалы, книги и музыка за 2013 и 2014 годы через торрент бесплатно. Скачивайте фильмы в хорошем качестве, игры для пк, xbox, playstation без регистрации. У нас вы найдете новые Зарубежные сериалы и Русские сериалы 2013, 2014, 2015 годов. Оставайтесь с нами, качайте любимые фильмы, игры, сериалы, книги и музыку.