img image001 image001 image001 image001 image001 image001 image001 image001 image001 image001 image001 image001 image001 image001 image001

Planets Sun Sun Sun
Статистика раздачи
Автор: Nickolas3434 | Размер: 15.23 ГБ | Добавлен: 16 фев 2015
Раздают: 25    Качают: 4
Скачать торрент
Скачать торрент
Описание торрента

СообщениеДобавлено: 16 фев 2015 


UFC Fight Night 60: Henderson vs. Thatch


Вид спорта:Смешанные единоборства
Дата/Год выпуска:14.02.2015
Язык комментариев:Русский/Английский
Продолжительность:4:48:09 (Реклама вырезана)
Релиз:
Качество: HDTV
Формат видео:TS
Видео:AVC/H.264, 1920x1080 (16:9), 25,000 кадров/сек, 6900 kbps
Аудио 1,2:MP2, 48000 Hz, 2 channels, stereo, 192 kbps
Смешанные единоборства. Fight Night в Брумфилде, США. Отборочные соревнования.
Боевые искусства. Fight Night в Брумфилде, США.

General
ID : 1 (0x1)
Complete name : F:UFC Fight Night Henderson vs Thatch - 14.02.15 - 1080i - Papai.ts
Format : MPEG-TS
File size : 15.2 GiB
Duration : 4h 48mn
Overall bit rate mode : Variable
Overall bit rate : 7 564 Kbps
Video
ID : 70 (0x46)
Menu ID : 1 (0x1)
Format : AVC
Format/Info : Advanced Video Codec
Format profile : High@L4.0
Format settings, CABAC : Yes
Format settings, ReFrames : 3 frames
Codec ID : 27
Duration : 4h 48mn
Bit rate mode : Variable
Bit rate : 6 802 Kbps
Maximum bit rate : 7 016 Kbps
Width : 1 920 pixels
Height : 1 080 pixels
Display aspect ratio : 16:9
Frame rate : 25.000 fps
Color space : YUV
Chroma subsampling : 4:2:0
Bit depth : 8 bits
Scan type : MBAFF
Bits/(Pixel*Frame) : 0.131
Stream size : 13.7 GiB (90%)
Color primaries : BT.709
Transfer characteristics : BT.709
Matrix coefficients : BT.709
Audio #1
ID : 68 (0x44)
Menu ID : 1 (0x1)
Format : MPEG Audio
Format version : Version 1
Format profile : Layer 2
Codec ID : 3
Duration : 4h 48mn
Bit rate mode : Constant
Bit rate : 192 Kbps
Channel(s) : 2 channels
Sampling rate : 48.0 KHz
Compression mode : Lossy
Stream size : 396 MiB (3%)
Language : English
Audio #2
ID : 69 (0x45)
Menu ID : 1 (0x1)
Format : MPEG Audio
Format version : Version 1
Format profile : Layer 2
Codec ID : 3
Duration : 4h 48mn
Bit rate mode : Constant
Bit rate : 192 Kbps
Channel(s) : 2 channels
Sampling rate : 48.0 KHz
Compression mode : Lossy
Stream size : 396 MiB (3%)
Language : English




   Похожие торренты   Торрент   Размер 
В этой теме нет новых непрочитанных сообщений. Смешанные единоборства. MMA. UFC Fight Night 60: Henderson vs. Thatch (Prelims + Main Card) [14.02] (2015) HDTVRip 720p | 50 fps

16 | 3

8.73 ГБ

В этой теме нет новых непрочитанных сообщений. Смешанные единоборства. MMA. UFC Fight Night 73: Teixeira vs. St. Preux (Main Card) [08.08] (2015) HDTV 1080i

35 | 12

7.45 ГБ

В этой теме нет новых непрочитанных сообщений. Смешанные единоборства. MMA. UFC Fight Night 60: Henderson vs. Thatch (Full Event) [14.02] (2015) HDTVRip

80 | 12

2.35 ГБ

В этой теме нет новых непрочитанных сообщений. Смешанные единоборства. MMA. UFC Fight Night 60: Henderson vs. Thatch (Full Event) [14.02] (2015) WEB-DL, HDTVRip 720p

339 | 8

6.75 ГБ

В этой теме нет новых непрочитанных сообщений. Смешанные единоборства. UFC Fight Night 36: Machida vs. Mousasi - Main Card [15.02] (2014) HDTV 1080i

22 | 7

14.83 ГБ

В этой теме нет новых непрочитанных сообщений. Смешанные единоборства. UFC Fight Night 46. McGregor vs. Brandao. Main Card (2014) HDTV 1080i

12 | 8

5.13 ГБ

В этой теме нет новых непрочитанных сообщений. Смешанные единоборства. UFC Fight Night 95: Cyborg vs. Lansberg. Main Card [24.09] (2016) HDTV 1080i

2 | 0

12.03 ГБ




Вы не можете начинать темы
Вы не можете отвечать на сообщения
Вы не можете редактировать свои сообщения
Вы не можете удалять свои сообщения
Вы не можете добавлять вложения

Перейти:  
Для Мосгорсуда, Роскомнадзора и рекламодателей: mosgorsud-torrent[собачка]yandex.ru
 Вход
ppkBB3cker v.2 © 2008-2014 @ PPK
[ Time : 0.034s | 16 Queries | GZIP : Off ]

Торрент трекер RUTOR.IN, Не можете зайти на rutor.org? Какой новый адрес рутор? Какое зеркало рутор? Не работает rutor.org и зеркала? Тогда наш торрент специально для вас. Rutor.in неофициальное зеркало rutor. В случае если у Вас заблокирован rutor или вдруг Вы не можете на него зайти, то Вы без труда сможете скачать бесплатно и без рекламы последние новинки кино, игр, сериалов и прочего у нас, на Rutor.in. Не нужно использовать прокси, чтобы зайти на рутор, достаточно воспользоваться нашим ресурсом. Все новые фильмы, игры, сериалы, книги и музыка за 2013 и 2014 годы через торрент бесплатно. Скачивайте фильмы в хорошем качестве, игры для пк, xbox, playstation без регистрации. У нас вы найдете новые Зарубежные сериалы и Русские сериалы 2013, 2014, 2015 годов. Оставайтесь с нами, качайте любимые фильмы, игры, сериалы, книги и музыку.
cron