img image001 image001 image001 image001 image001 image001 image001 image001 image001 image001 image001 image001 image001 image001 image001

Planets Sun Sun Sun
Статистика раздачи
Автор: Nickolas3434 | Размер: 6.77 ГБ | Добавлен: 17 фев 2015
Раздают: 3    Качают: 2
Скачать торрент
Скачать торрент
Описание торрента

СообщениеДобавлено: 17 фев 2015 

Кубок Мира 2014-15. 8-й этап. Осло-Хольменколлен (Норвегия)
Мужчины. Эстафета 4x7,5 км

Вид спорта: Биатлон
Комментарий: Немецкий
Описание: КМ-2015. Этап 8 (Осло-Хольменколлен, Норвегия)
Мужчины. Эстафета 4x7,5 км
15 февраля 2015 года, воскресенье. 16:30 МСК
Автор записи: SashaR.

Качество: HDTVRip
Формат: AVC
Видео кодек: H.264
Аудио кодек: MP2
Видео: 1280x720 (16:9), 50 fps, 10,8 Мбит/сек
Аудио: 48 kHz, 2 channels, 246, 448 Kbps

01:30:06
Общее
Идентификатор : 1019 (0x3FB)
Полное имя : D:Биатлон. Кубок Мира 2014-15. 8-й этап. Холменколен (Норвегия)ZDF HDМужчины. Эстафета. 4х7,5 км.ts
Формат : MPEG-TS
Размер файла : 6,77 Гбайт
Продолжительность : 1 ч. 30 м.
Режим общего битрейта : Переменный
Общий поток : 10,8 Мбит/сек
Видео
Идентификатор : 5101 (0x13ED)
Идентификатор меню : 10301 (0x283D)
Формат : AVC
Формат/Информация : Advanced Video Codec
Профиль формата : High@L4.0
Параметр CABAC формата : Да
Параметр ReFrames формата : 4 кадра
Идентификатор кодека : 27
Продолжительность : 1 ч. 30 м.
Битрейт : 9260 Кбит/сек
Ширина : 1280 пикселей
Высота : 720 пикселей
Соотношение сторон : 16:9
Частота кадров : 50,000 кадров/сек
Цветовое пространство : YUV
Субдискретизация насыщенности : 4:2:0
Битовая глубина : 8 бит
Тип развёртки : Прогрессивная
Бит/(Пиксели*Кадры) : 0.201
Размер потока : 5,83 Гбайт (86%)
Аудио #1
Идентификатор : 5102 (0x13EE)
Идентификатор меню : 10301 (0x283D)
Формат : MPEG Audio
Версия формата : Version 1
Профиль формата : Layer 2
Идентификатор кодека : 3
Продолжительность : 1 ч. 30 м.
Вид битрейта : Постоянный
Битрейт : 256 Кбит/сек
Каналы : 2 канала
Частота : 48,0 КГц
Метод сжатия : С потерями
Задержка видео : 92 мс.
Размер потока : 165 Мбайт (2%)
Язык : German
Аудио #2
Идентификатор : 5103 (0x13EF)
Идентификатор меню : 10301 (0x283D)
Формат : MPEG Audio
Версия формата : Version 1
Профиль формата : Layer 2
Идентификатор кодека : 3
Продолжительность : 1 ч. 30 м.
Вид битрейта : Постоянный
Битрейт : 256 Кбит/сек
Каналы : 2 канала
Частота : 48,0 КГц
Метод сжатия : С потерями
Задержка видео : 92 мс.
Размер потока : 165 Мбайт (2%)
deor_tag_extension : 6 / 6
Аудио #3
Идентификатор : 5106 (0x13F2)
Идентификатор меню : 10301 (0x283D)
Формат : AC-3
Формат/Информация : Audio Coding 3
Расширение режима : CM (complete main)
Параметр Endianness формата : Big
Идентификатор кодека : 6
Продолжительность : 1 ч. 30 м.
Вид битрейта : Постоянный
Битрейт : 448 Кбит/сек
Каналы : 2 канала
Расположение каналов : Front: L R
Частота : 48,0 КГц
Битовая глубина : 16 бит
Метод сжатия : С потерями
Задержка видео : 24 мс.
Размер потока : 289 Мбайт (4%)
Язык : German

Воот, чисто для любителей выложил отдельную немецкую версию) Губы нет что есть ооочень приятно )))
ПыСы Для настоящих любителей качества! )
:



   Похожие торренты   Торрент   Размер 
В этой теме нет новых непрочитанных сообщений. Биатлон. Кубок Мира 2014-15. 8-й этап. Холменколлен (Норвегия). Мужчины. Эстафета 4x7,5 км [15.02] (2015) HDTVRip 720p | 50 fps

61 | 3

2.58 ГБ

В этой теме нет новых непрочитанных сообщений. Биатлон. Кубок Мира 2014-15. 8-й этап. Холменколлен (Норвегия). Мужчины. Эстафета 4x7,5 км [15.02] (2015) WEB-DL 720p

139 | 6

1.4 ГБ

В этой теме нет новых непрочитанных сообщений. Биатлон. Кубок Мира 2014-15. 8-й этап. Холменколлен (Норвегия). Женщины. Эстафета 4x6 км [15.02] (2015) HDTVRip 720p | 50 fps

44 | 3

2.54 ГБ

В этой теме нет новых непрочитанных сообщений. Биатлон. Кубок Мира 2014-15. 8-й этап. Холменколлен (Норвегия). Мужчины. Спринт 10 км [14.02] (2015) HDTVRip 720p | 50 fps

57 | 3

2.35 ГБ

В этой теме нет новых непрочитанных сообщений. Биатлон. Кубок Мира 2014-15. 8-й этап. Холменколлен (Норвегия). Мужчины. Индивидуальная гонка 20 км [12.02] (2015) HDTVRip 720p | 50 fps

26 | 2

3.63 ГБ

В этой теме нет новых непрочитанных сообщений. Биатлон. Кубок Мира 2014-15. 8-й этап. Холменколлен (Норвегия). Женщины. Эстафета 4x6 км [15.02] (2015) HDTV 1080i

19 | 2

5.79 ГБ

В этой теме нет новых непрочитанных сообщений. Биатлон. Кубок Мира 2014-15. 8-й этап. Холменколлен (Норвегия). Женщины. Эстафета 4x6 км [15.02] (2015) HDTV 1080i

6 | 2

5.11 ГБ




Вы не можете начинать темы
Вы не можете отвечать на сообщения
Вы не можете редактировать свои сообщения
Вы не можете удалять свои сообщения
Вы не можете добавлять вложения

Перейти:  
Для Мосгорсуда, Роскомнадзора и рекламодателей: mosgorsud-torrent[собачка]yandex.ru
 Вход
ppkBB3cker v.2 © 2008-2014 @ PPK
[ Time : 0.029s | 15 Queries | GZIP : Off ]

Торрент трекер RUTOR.IN, Не можете зайти на rutor.org? Какой новый адрес рутор? Какое зеркало рутор? Не работает rutor.org и зеркала? Тогда наш торрент специально для вас. Rutor.in неофициальное зеркало rutor. В случае если у Вас заблокирован rutor или вдруг Вы не можете на него зайти, то Вы без труда сможете скачать бесплатно и без рекламы последние новинки кино, игр, сериалов и прочего у нас, на Rutor.in. Не нужно использовать прокси, чтобы зайти на рутор, достаточно воспользоваться нашим ресурсом. Все новые фильмы, игры, сериалы, книги и музыка за 2013 и 2014 годы через торрент бесплатно. Скачивайте фильмы в хорошем качестве, игры для пк, xbox, playstation без регистрации. У нас вы найдете новые Зарубежные сериалы и Русские сериалы 2013, 2014, 2015 годов. Оставайтесь с нами, качайте любимые фильмы, игры, сериалы, книги и музыку.