img image001 image001 image001 image001 image001 image001 image001 image001 image001 image001 image001 image001 image001 image001 image001

Planets Sun Sun Sun
Статистика раздачи
Автор: Nickolas3434 | Размер: 4.99 ГБ | Добавлен: 18 фев 2015
Раздают: 519    Качают: 32
Скачать торрент
Скачать торрент
Описание торрента

СообщениеДобавлено: 18 фев 2015 

Информация о фильме:
Название: Все голы чемпионата мира по футболу 2014 года в Бразилии
Год выпуска: 2014
Страна: Бразилия
Жанр: Спорт
Продолжительность: 04:23:56
Перевод: Российские комментаторы




Описание: По окончании чемпионата мира сделал нарезку в HD 1080p для своей видеоколлекции, сегодня в уменьшенном варианте предлагаю вашему вниманию. Кроме всех голов чемпионата мира по футболу 2014 года, включил в раздачу небольшой бонус, в который вошли: лучший гол чемпионата, укус Суареса и другие интересные моменты чемпионата.




Файл
Качество: HDTVRip
Формат: MKV
Видео кодек: H.264
Аудио кодек: AC3
Видео: MPEG4 Video (H264), 720x408, 25fps, 2500 Kbps
Аудио: Dolby AC3, 48000 Hz, 2ch, 192 kbps
Сэмпл
General
Unique ID : 228083599466279561084459071374026492767 (0xAB974DABDB488B1B9C9E57FDCFD64B5F)
Complete name : F:DVDRipЧМ-2014.renta234 ФиналФинал.mkv
Format : Matroska
Format version : Version 2
File size : 27.0 MiB
Duration : 1mn 23s
Overall bit rate : 2 695 Kbps
Encoded date : UTC 2015-02-16 18:40:04
Writing application : mkvmerge v5.8.0 ('No Sleep / Pillow') built on Sep 2 2012 15:37:04
Writing library : libebml v1.2.3 + libmatroska v1.3.0
Video
ID : 1
Format : AVC
Format/Info : Advanced Video Codec
Format profile : High@L4.1
Format settings, CABAC : Yes
Format settings, ReFrames : 7 frames
Codec ID : V_MPEG4/ISO/AVC
Duration : 1mn 23s
Bit rate : 2 500 Kbps
Width : 720 pixels
Height : 408 pixels
Display aspect ratio : 16:9
Frame rate mode : Constant
Frame rate : 25.000 fps
Color space : YUV
Chroma subsampling : 4:2:0
Bit depth : 8 bits
Scan type : Progressive
Bits/(Pixel*Frame) : 0.340
Stream size : 24.5 MiB (91%)
Writing library : x264 core 125 r2208 d9d2288
Encoding settings : cabac=1 / ref=8 / deblock=1:-1:-1 / analyse=0x3:0x133 / me=umh / subme=11 / psy=1 / psy_rd=1.15:0.25 / mixed_ref=1 / me_range=24 / chroma_me=1 / trellis=2 / 8x8dct=1 / cqm=0 / deadzone=21,11 / fast_pskip=0 / chroma_qp_offset=-4 / threads=12 / lookahead_threads=2 / sliced_threads=0 / nr=0 / decimate=1 / interlaced=0 / bluray_compat=0 / constrained_intra=0 / bframes=16 / b_pyramid=1 / b_adapt=2 / b_bias=0 / direct=3 / weightb=1 / open_gop=0 / weightp=2 / keyint=250 / keyint_min=25 / scenecut=40 / intra_refresh=0 / rc_lookahead=50 / rc=2pass / mbtree=1 / bitrate=2500 / ratetol=1.0 / qcomp=0.60 / qpmin=0 / qpmax=69 / qpstep=4 / cplxblur=20.0 / qblur=0.5 / ip_ratio=1.40 / aq=1:1.00
Default : Yes
Forced : No
Audio
ID : 2
Format : AC-3
Format/Info : Audio Coding 3
Mode extension : CM (complete main)
Format settings, Endianness : Big
Codec ID : A_AC3
Duration : 1mn 23s
Bit rate mode : Constant
Bit rate : 192 Kbps
Channel(s) : 2 channels
Channel positions : Front: L R
Sampling rate : 48.0 KHz
Bit depth : 16 bits
Compression mode : Lossy
Stream size : 1.92 MiB (7%)
Default : Yes
Forced : No





   Похожие торренты   Торрент   Размер 
В этой теме нет новых непрочитанных сообщений. Футбол. Все голы чемпионата мира по футболу (2010) HDTVRip 720p

21 | 21

8.55 ГБ

В этой теме нет новых непрочитанных сообщений. Жеребьевка финальной части чемпионата Европы по футболу 2012 года (2011) SATRip

0 | 2

1.17 ГБ

В этой теме нет новых непрочитанных сообщений. Футбол. Все голы Чемпионата России 2014-2015. НТВ+ Наш футбол HD (2014) HDTVRip 720р | 50 FPS

3 | 5

14.89 ГБ

В этой теме нет новых непрочитанных сообщений. Футбол. Все голы Чемпионата России 2014-2015. НТВ+ Наш футбол HD (2014) HDTVRip 720р | 50 FPS

3 | 5

4.2 ГБ

В этой теме нет новых непрочитанных сообщений. Футбол. Все голы Чемпионата России 2014-2015. НТВ+ Наш футбол HD (2014) HDTVRip 720р | 50 FPS

2 | 3

3.48 ГБ

В этой теме нет новых непрочитанных сообщений. Футбол. Чемпионат мира 1986: Все голы чемпионата (1986) VHSRip

8 | 5

824.64 МБ

В этой теме нет новых непрочитанных сообщений. Футбол. Чемпионат Мира. 1990 год. Все голы чемпионата (1990) VHSRip

60 | 106

1.66 ГБ




Вы не можете начинать темы
Вы не можете отвечать на сообщения
Вы не можете редактировать свои сообщения
Вы не можете удалять свои сообщения
Вы не можете добавлять вложения

Перейти:  
Для Мосгорсуда, Роскомнадзора и рекламодателей: mosgorsud-torrent[собачка]yandex.ru
 Вход
ppkBB3cker v.2 © 2008-2014 @ PPK
[ Time : 0.073s | 15 Queries | GZIP : Off ]

Торрент трекер RUTOR.IN, Не можете зайти на rutor.org? Какой новый адрес рутор? Какое зеркало рутор? Не работает rutor.org и зеркала? Тогда наш торрент специально для вас. Rutor.in неофициальное зеркало rutor. В случае если у Вас заблокирован rutor или вдруг Вы не можете на него зайти, то Вы без труда сможете скачать бесплатно и без рекламы последние новинки кино, игр, сериалов и прочего у нас, на Rutor.in. Не нужно использовать прокси, чтобы зайти на рутор, достаточно воспользоваться нашим ресурсом. Все новые фильмы, игры, сериалы, книги и музыка за 2013 и 2014 годы через торрент бесплатно. Скачивайте фильмы в хорошем качестве, игры для пк, xbox, playstation без регистрации. У нас вы найдете новые Зарубежные сериалы и Русские сериалы 2013, 2014, 2015 годов. Оставайтесь с нами, качайте любимые фильмы, игры, сериалы, книги и музыку.