img image001 image001 image001 image001 image001 image001 image001 image001 image001 image001 image001 image001 image001 image001 image001

Planets Sun Sun Sun
Статистика раздачи
Автор: Nickolas3434 | Размер: 1.52 ГБ | Добавлен: 03 мар 2015
Раздают: 8    Качают: 4
Скачать торрент
Скачать торрент
Описание торрента

СообщениеДобавлено: 03 мар 2015 

Carl Frampton vs. Chris Avalos / Карл Фрэмптон - Крис Авалос


#77
Дата/Год выпуска: 28.02.2015
Вид спорта: Бокс
Язык комментариев: Английский
Канал: UTV Ireland HD
Место проведения: "Odyssey Arena", Белфаст, Северная Ирландия

Описание: Чемпион мира во втором легчайшем весе по версии IBF Карл Фрэмптон (20-0, 14 КО) проведёт первую защиту чемпионского титула против Криса Авалосома (25-3, 19 КО).

Автор рипа/записи: emeraldeyes

Качество: HDTV 720p
Формат: MKV
Видео: 1280x720 (16:9), 50,000 fps, H264, ~3600 kbps avg, ~0.079 bit/pixel
Аудио: 48 kHz, AC3 Dolby Digital, 2/0 (L,R) ch, ~192.00 kbps avg

0:56:36
General
Unique ID : 217780663492058596931979260343072051662 (0xA3D707B578BDD24191F84BB4229BD1CE)
Complete name : E:uTorrent.TempDoneCarl.Frampton.vs.Chris.Avalos.50fps.HDTV.720p.x264-ENG-lrn.mkv
Format : Matroska
Format version : Version 4 / Version 2
File size : 1.52 GiB
Duration : 56mn 36s
Overall bit rate : 3 844 Kbps
Movie name : Carl.Frampton.vs.Chris.Avalos.50fps.HDTV.720p.x264-ENG-lrn
Encoded date : UTC 2010-02-22 21:41:31
Writing application : mkvmerge v5.9.0 ('On The Loose') built on Dec 9 2012 15:37:01
Writing library : libebml v1.3.0 + libmatroska v1.4.0

Video
ID : 1
Format : AVC
Format/Info : Advanced Video Codec
Format profile : High@L3.2
Format settings, CABAC : Yes
Format settings, ReFrames : 2 frames
Codec ID : V_MPEG4/ISO/AVC
Duration : 56mn 36s
Bit rate : 3 650 Kbps
Width : 1 280 pixels
Height : 720 pixels
Display aspect ratio : 16:9
Frame rate mode : Constant
Frame rate : 50.000 fps
Color space : YUV
Chroma subsampling : 4:2:0
Bit depth : 8 bits
Scan type : Progressive
Bits/(Pixel*Frame) : 0.079
Stream size : 1.41 GiB (93%)
Writing library : x264 core 129
Encoding settings : cabac=1 / ref=2 / deblock=1:0:0 / analyse=0x3:0x113 / me=hex / subme=6 / psy=1 / psy_rd=1.00:0.00 / mixed_ref=1 / me_range=16 / chroma_me=1 / trellis=0 / 8x8dct=1 / cqm=0 / deadzone=21,11 / fast_pskip=1 / chroma_qp_offset=-2 / threads=8 / lookahead_threads=1 / sliced_threads=0 / nr=0 / decimate=1 / interlaced=0 / bluray_compat=0 / constrained_intra=0 / bframes=0 / weightp=2 / keyint=250 / keyint_min=25 / scenecut=40 / intra_refresh=0 / rc_lookahead=40 / rc=2pass / mbtree=1 / bitrate=3650 / ratetol=1.0 / qcomp=0.60 / qpmin=10 / qpmax=51 / qpstep=4 / cplxblur=20.0 / qblur=0.5 / ip_ratio=1.41 / aq=1:1.00
Default : Yes
Forced : No

Audio
ID : 2
Format : AC-3
Format/Info : Audio Coding 3
Mode extension : CM (complete main)
Format settings, Endianness : Big
Codec ID : A_AC3
Duration : 56mn 36s
Bit rate mode : Constant
Bit rate : 192 Kbps
Channel(s) : 2 channels
Channel positions : Front: L R
Sampling rate : 48.0 KHz
Bit depth : 16 bits
Compression mode : Lossy
Stream size : 77.7 MiB (5%)
Language : English
Default : Yes
Forced : No



   Похожие торренты   Торрент   Размер 
В этой теме нет новых непрочитанных сообщений. Бокс. Карл Фрэмптон - Алехандро Гонсалес + Андеркарт [18.07] (2015) HDTV 720p | 60 fps

35 | 17

5.58 ГБ

В этой теме нет новых непрочитанных сообщений. Бокс. Карл Дарган - Тони Луис + Андеркарт [30.01] (2015) HDTV 720p | 60 fps

5 | 3

5.38 ГБ

В этой теме нет новых непрочитанных сообщений. Бокс. Артур Абрахам - Пол Смит 2 [21.02] (2015) HDTV 720p | 50fps

19 | 2

3.05 ГБ

В этой теме нет новых непрочитанных сообщений. Бокс. Томми Койл - Мартин Джетин + Андеркарт [07.03] (2015) HDTV 720p | 50fps

10 | 14

10.71 ГБ

В этой теме нет новых непрочитанных сообщений. Бокс. Амир Хан - Крис Алгиери + Андеркарт [29.05] (2015) HDTVRip 720p | 60 fps

24 | 12

5.77 ГБ

В этой теме нет новых непрочитанных сообщений. Бокс. Крис Арреола - Бермейн Стиверн 2 + Андеркард [10.05] (2014) HDTV 720р | 60 fps

49 | 10

3.75 ГБ

В этой теме нет новых непрочитанных сообщений. Бокс. Владимир Кличко - Тайсон Фьюри [28.11] (2015) HDTVRip 720p | 50fps

1163 | 66

2.04 ГБ




Вы не можете начинать темы
Вы не можете отвечать на сообщения
Вы не можете редактировать свои сообщения
Вы не можете удалять свои сообщения
Вы не можете добавлять вложения

Перейти:  
Для Мосгорсуда, Роскомнадзора и рекламодателей: mosgorsud-torrent[собачка]yandex.ru
 Вход
ppkBB3cker v.2 © 2008-2014 @ PPK
[ Time : 0.027s | 15 Queries | GZIP : Off ]

Торрент трекер RUTOR.IN, Не можете зайти на rutor.org? Какой новый адрес рутор? Какое зеркало рутор? Не работает rutor.org и зеркала? Тогда наш торрент специально для вас. Rutor.in неофициальное зеркало rutor. В случае если у Вас заблокирован rutor или вдруг Вы не можете на него зайти, то Вы без труда сможете скачать бесплатно и без рекламы последние новинки кино, игр, сериалов и прочего у нас, на Rutor.in. Не нужно использовать прокси, чтобы зайти на рутор, достаточно воспользоваться нашим ресурсом. Все новые фильмы, игры, сериалы, книги и музыка за 2013 и 2014 годы через торрент бесплатно. Скачивайте фильмы в хорошем качестве, игры для пк, xbox, playstation без регистрации. У нас вы найдете новые Зарубежные сериалы и Русские сериалы 2013, 2014, 2015 годов. Оставайтесь с нами, качайте любимые фильмы, игры, сериалы, книги и музыку.