img image001 image001 image001 image001 image001 image001 image001 image001 image001 image001 image001 image001 image001 image001 image001

Planets Sun Sun Sun
Статистика раздачи
Автор: Nickolas3434 | Размер: 588.22 МБ | Добавлен: 09 мар 2015
Раздают: 18    Качают: 6
Скачать торрент
Скачать торрент
Описание торрента

СообщениеДобавлено: 09 мар 2015 

Keith Thurman vs. Robert Guerrero / Кит Турман - Роберт Герреро


#77
Дата/Год выпуска: 07.03.2015
Вид спорта: Бокс
Язык комментариев: Английский
Канал: BoxNation
Место проведения: "MGM Grand, Grand Garden Arena", Лас-Вегас, Невада, США.

Описание: Чемпион WBA в полусреднем весе Кит Турман (24-0, 21 КО) встретится с экс-чемпионом мира в двух весовых категориях Робертом Герреро (32-2-1, 18 КО).

Автор рипа/записи: Sir.Paul

Качество: PDTVRip
Формат: MP4
Видео: 700x400 (16:9), 25,000 fps, H264, ~1100 kbps avg, ~0.250 bit/pixel
Аудио: 48 kHz, AAC, 2/0 (L,R) ch, ~160.00 kbps avg

1:05:42
General
Complete name : E:uTorrent.TempTempBoxing.Keith.Thurman.vs.Robert.Guerrero.7th.March.2015.PDTV.x264-Sir.Paul.mp4
Format : MPEG-4
Format profile : Base Media / Version 2
Codec ID : mp42
File size : 588 MiB
Duration : 1h 5mn
Overall bit rate mode : Variable
Overall bit rate : 1 251 Kbps
Writing application : HandBrake 0.10.0 2014112200
Video
ID : 1
Format : AVC
Format/Info : Advanced Video Codec
Format profile : Main@L4.0
Format settings, CABAC : Yes
Format settings, ReFrames : 4 frames
Codec ID : avc1
Codec ID/Info : Advanced Video Coding
Duration : 1h 5mn
Bit rate : 1 100 Kbps
Width : 700 pixels
Height : 400 pixels
Display aspect ratio : 16:9
Frame rate mode : Constant
Frame rate : 29.970 fps
Color space : YUV
Chroma subsampling : 4:2:0
Bit depth : 8 bits
Scan type : Progressive
Bits/(Pixel*Frame) : 0.131
Stream size : 510 MiB (87%)
Writing library : x264 core 142 r2479 dd79a61
Encoding settings : cabac=1 / ref=1 / deblock=1:0:0 / analyse=0x1:0x111 / me=hex / subme=2 / psy=1 / psy_rd=1.00:0.00 / mixed_ref=0 / me_range=16 / chroma_me=1 / trellis=0 / 8x8dct=0 / cqm=0 / deadzone=21,11 / fast_pskip=1 / chroma_qp_offset=0 / threads=12 / lookahead_threads=3 / sliced_threads=0 / nr=0 / decimate=1 / interlaced=0 / bluray_compat=0 / constrained_intra=0 / bframes=3 / b_pyramid=2 / b_adapt=1 / b_bias=0 / direct=1 / weightb=1 / open_gop=0 / weightp=1 / keyint=300 / keyint_min=30 / scenecut=40 / intra_refresh=0 / rc_lookahead=10 / rc=abr / mbtree=1 / bitrate=1100 / ratetol=1.0 / qcomp=0.60 / qpmin=0 / qpmax=69 / qpstep=4 / vbv_maxrate=20000 / vbv_bufsize=25000 / nal_hrd=none / filler=0 / ip_ratio=1.40 / aq=1:1.00
Color primaries : BT.709
Transfer characteristics : BT.709
Matrix coefficients : BT.709
Color range : Limited
Audio
ID : 2
Format : AAC
Format/Info : Advanced Audio Codec
Format profile : LC
Codec ID : 40
Duration : 1h 5mn
Bit rate mode : Variable
Bit rate : 160 Kbps
Channel(s) : 2 channels
Channel positions : Front: L R
Sampling rate : 48.0 KHz
Compression mode : Lossy
Stream size : 75.3 MiB (13%)
Title : Stereo / Stereo
Language : English



   Похожие торренты   Торрент   Размер 
В этой теме нет новых непрочитанных сообщений. Бокс. Кит Турман - Роберт Герреро + Андеркарт [07.03] (2015) HDTV 720p | 60fps

22 | 25

10.03 ГБ

В этой теме нет новых непрочитанных сообщений. Бокс. Вечер бокса в Лас-Вегасе. Флойд Мейвезер-младший - Роберт Герреро + андеркарт [04.05] (2013) SATRip

12 | 5

1.36 ГБ

В этой теме нет новых непрочитанных сообщений. Бокс. Бой за титул чемпиона мира в полусреднем весе по версии WBC. Дэнни Гарсиа - Роберт Герреро + aндеркарт [23.01] (2016) HDTV 1080i

169 | 32

9.4 ГБ

В этой теме нет новых непрочитанных сообщений. Бокс. Кит Турман - Луис Коллазо + Андеркарт [11.07] (2015) HDTVRip | 60 fps

69 | 47

5.03 ГБ

В этой теме нет новых непрочитанных сообщений. Бокс. Роберт Штиглиц - Айзек Экпо / Robert Stieglitz vs Isaac Ekpo [19.10] (2013) HDTV 1080i

0 | 2

4.07 ГБ

В этой теме нет новых непрочитанных сообщений. Роберт Каплан - Месть географии (2015) FB2, RTF

142 | 12

10.06 МБ

В этой теме нет новых непрочитанных сообщений. Роберт Римини - Краткая история США (2015) FB2

154 | 10

4.83 МБ




Вы не можете начинать темы
Вы не можете отвечать на сообщения
Вы не можете редактировать свои сообщения
Вы не можете удалять свои сообщения
Вы не можете добавлять вложения

Перейти:  
Для Мосгорсуда, Роскомнадзора и рекламодателей: mosgorsud-torrent[собачка]yandex.ru
 Вход
ppkBB3cker v.2 © 2008-2014 @ PPK
[ Time : 0.020s | 15 Queries | GZIP : Off ]

Торрент трекер RUTOR.IN, Не можете зайти на rutor.org? Какой новый адрес рутор? Какое зеркало рутор? Не работает rutor.org и зеркала? Тогда наш торрент специально для вас. Rutor.in неофициальное зеркало rutor. В случае если у Вас заблокирован rutor или вдруг Вы не можете на него зайти, то Вы без труда сможете скачать бесплатно и без рекламы последние новинки кино, игр, сериалов и прочего у нас, на Rutor.in. Не нужно использовать прокси, чтобы зайти на рутор, достаточно воспользоваться нашим ресурсом. Все новые фильмы, игры, сериалы, книги и музыка за 2013 и 2014 годы через торрент бесплатно. Скачивайте фильмы в хорошем качестве, игры для пк, xbox, playstation без регистрации. У нас вы найдете новые Зарубежные сериалы и Русские сериалы 2013, 2014, 2015 годов. Оставайтесь с нами, качайте любимые фильмы, игры, сериалы, книги и музыку.