img image001 image001 image001 image001 image001 image001 image001 image001 image001 image001 image001 image001 image001 image001 image001

Planets Sun Sun Sun
Статистика раздачи
Автор: Nickolas3434 | Размер: 1.13 ГБ | Добавлен: 13 мар 2015
Раздают: 81    Качают: 6
Скачать торрент
Скачать торрент
Описание торрента

СообщениеДобавлено: 13 мар 2015 

Лига Чемпионов 2014-2015 / 1/8 финала / ответные матчи / 2-й день / Обзор матчей
Вид спорта: футбол
Участники: Челси, ПСЖ, Бавария, Шахтер (Донецк)
Дата/Год выпуска: 2015
Язык комментариев: английский
Описание: обзор ответных матчей, второго игрового дня, 1/8 финала, Лиги Чемпионов 2014-2015
Качество: DVB
Формат видео: TS
Видео кодек: MPEG2
Аудио кодек: Mp2
Видео: 1024x576@704x576 (1.78:1), 25 fps, ~2548 kbps avg, 0.25 bit/pixel
Аудио: 48 kHz, MPEG Layer 2, 2 ch, ~192 kbps avg
00:55:58
Полное имя : CLGS_RD_16_3112015.ts
Формат : MPEG-TS
Размер файла : 1,13 Гбайт
Продолжительность : 55 м.
Режим общего битрейта : Переменный
Общий поток : 2885 Кбит/сек
Видео
Идентификатор : 69 (0x45)
Идентификатор меню : 1 (0x1)
Формат : MPEG Video
Версия формата : Version 2
Профиль формата : Main@Main
Параметр BVOP формата : Да
Параметр матрицы формата : Выборочная
Параметр GOP формата : Variable
Идентификатор кодека : 2
Продолжительность : 55 м.
Вид битрейта : Переменный
Битрейт : 2548 Кбит/сек
Максимальный битрейт : 15,0 Мбит/сек
Ширина : 704 пикселя
Высота : 576 пикселей
Соотношение сторон : 16:9
Частота кадров : 25,000 кадров/сек
Стандарт вещания : PAL
Цветовое пространство : YUV
Субдискретизация насыщенности : 4:2:0
Битовая глубина : 8 бит
Тип развёртки : Чересстрочная
Порядок развёртки : Верхнее поле первое
Метод сжатия : С потерями
Бит/(Пиксели*Кадры) : 0.251
Временной код первого кадра : 23:45:21:21
Оригинал временного кода : Group of pictures header
Размер потока : 1020 Мбайт (88%)
Аудио
Идентификатор : 68 (0x44)
Идентификатор меню : 1 (0x1)
Формат : MPEG Audio
Версия формата : Version 1
Профиль формата : Layer 2
Идентификатор кодека : 3
Продолжительность : 55 м.
Вид битрейта : Постоянный
Битрейт : 192 Кбит/сек
Каналы : 2 канала
Частота : 48,0 КГц
Метод сжатия : С потерями
Задержка видео : -106 мс.
Размер потока : 76,9 Мбайт (7%)
Язык : English



   Похожие торренты   Торрент   Размер 
В этой теме нет новых непрочитанных сообщений. Футбол. Лига чемпионов 2014-15. 1/2 финала. Обзор ответных матчей [13.05] (2015) HDTVRip

145 | 7

287.52 МБ

В этой теме нет новых непрочитанных сообщений. Футбол. Лига Чемпионов 2014-2015. 1/8 финала. ответные матчи. 1-й день. Обзор матчей [10.03] (2015) WEBRip

73 | 3

324.7 МБ

В этой теме нет новых непрочитанных сообщений. Футбол. Лига чемпионов 2014-15. 1/2 финала. Обзор ответных матчей [13.05] (2015) HDTVRip 720p | 50 fps

35 | 3

728.96 МБ

В этой теме нет новых непрочитанных сообщений. Футбол. Лига Чемпионов 2014-2015. 1/8 финала. Ответные матчи. 2-й день. Обзор матчей [11.03] (2015) HDTVRip 720p | 50 fps

117 | 5

866.33 МБ

В этой теме нет новых непрочитанных сообщений. Футбол. Лига Чемпионов 2014-2015. 1/8 финала. Ответные матчи. 1-й день. Обзор матчей [10.03] (2015) HDTVRip 720p | 50 fps

69 | 3

864.56 МБ

В этой теме нет новых непрочитанных сообщений. Футбол. Лига Чемпионов 2014-2015. 1/8 финала. Ответные матчи. 3-й день. Обзор матчей [17.03] (2015) HDTVRip 720p | 50 fps

33 | 2

1014.22 МБ

В этой теме нет новых непрочитанных сообщений. Футбол. Лига чемпионов 2014-15. 1/4 финала. Первые матчи. 2-й день. Обзор матчей [21.04] (2015) HDTVRip

51 | 2

305.35 МБ




Вы не можете начинать темы
Вы не можете отвечать на сообщения
Вы не можете редактировать свои сообщения
Вы не можете удалять свои сообщения
Вы не можете добавлять вложения

Перейти:  
Для Мосгорсуда, Роскомнадзора и рекламодателей: mosgorsud-torrent[собачка]yandex.ru
 Вход
ppkBB3cker v.2 © 2008-2014 @ PPK
[ Time : 0.042s | 16 Queries | GZIP : Off ]

cron