img image001 image001 image001 image001 image001 image001 image001 image001 image001 image001 image001 image001 image001 image001 image001

Planets Sun Sun Sun
Статистика раздачи
Автор: Nickolas3434 | Размер: 2.77 ГБ | Добавлен: 17 мар 2015
Раздают: 28    Качают: 12
Скачать торрент
Скачать торрент
Описание торрента

СообщениеДобавлено: 17 мар 2015 

UFC 185: Pettis vs. Dos Anjos (Early Prelims)


#77
Год выпуска: 14.03.2015
Вид спорта: MMA
Продолжительность: 1:29:44
Язык комментариев: Английский

Описание: Ранние предварительные бои турнира "UFC 185: Pettis vs. Dos Anjos", прошедшего 14 марта 2015 года в "American Airlines Center", Даллас, Техас, США.

Автор рипа/записи: ViLLAiNS

Качество: WEB-DL 720p
Формат: MP4
Видео: 1280x720 (16:9), 29,970 fps, H264, ~4500 kbps avg, ~0.155 bit/pixel
Аудио: 44.1 kHz, AAC, 2/0 (L,R), ~128.00 kbps avg

[Flyweight] Sergio Pettis vs. Ryan Benoit
[Lightweight] Jake Lindsey vs. Joseph Duffy
[Women's Bantamweight] Larissa Pacheco vs. Germaine de Randamie
General
Complete name : E:uTorrent.TempTempUFC.185.Pettis.vs.Dos.Anjos.Early.Prelims.720p.WEB.DL.x264-ViLLAiNS.mp4
Format : MPEG-4
Format profile : Base Media
Codec ID : isom
File size : 2.77 GiB
Duration : 1h 29mn
Overall bit rate : 4 414 Kbps
Writing application : Lavf56.25.101
Video
ID : 1
Format : AVC
Format/Info : Advanced Video Codec
Format profile : Main@L4.0
Format settings, CABAC : Yes
Format settings, ReFrames : 3 frames
Codec ID : avc1
Codec ID/Info : Advanced Video Coding
Duration : 1h 29mn
Bit rate : 4 276 Kbps
Width : 1 280 pixels
Height : 720 pixels
Display aspect ratio : 16:9
Frame rate mode : Constant
Frame rate : 29.970 fps
Color space : YUV
Chroma subsampling : 4:2:0
Bit depth : 8 bits
Scan type : Progressive
Bits/(Pixel*Frame) : 0.155
Stream size : 2.68 GiB (97%)
Audio
ID : 2
Format : AAC
Format/Info : Advanced Audio Codec
Format profile : LC
Codec ID : 40
Duration : 1h 29mn
Bit rate mode : Constant
Bit rate : 128 Kbps
Channel(s) : 2 channels
Channel positions : Front: L R
Sampling rate : 44.1 KHz
Compression mode : Lossy
Stream size : 82.3 MiB (3%)



   Похожие торренты   Торрент   Размер 
В этой теме нет новых непрочитанных сообщений. Смешанные единоборства. MMA. UFC 185: Anthony Pettis vs Rafael dos Anjos + Основной кард [14.03] (2015) HDTVRip 720p

123 | 11

4.47 ГБ

В этой теме нет новых непрочитанных сообщений. Смешанные единоборства. UFC 179 Aldo vs. Mendes 2 (Main Card + Prelims + Early Prelims) [25.10] (2014) HDTV, WEB-DL 720p

59 | 37

11.87 ГБ

В этой теме нет новых непрочитанных сообщений. Смешанные единоборства. MMA. UFC 185: Pettis vs. Dos Anjos (Full Event) [14.03] (2015) WEBRip, HDTVRip

37 | 15

2.76 ГБ

В этой теме нет новых непрочитанных сообщений. Смешанные единоборства. MMA. UFC 185: Anthony Pettis vs Rafael dos Anjos + Основной кард [14.03] (2015) HDTVRip

57 | 4

1.9 ГБ

В этой теме нет новых непрочитанных сообщений. Смешанные единоборства. MMA. UFC 185: Pettis vs. Dos Anjos (Preliminary Card + Main Card) [14.03] (2015) HDTV 720p

40 | 32

9.14 ГБ

В этой теме нет новых непрочитанных сообщений. Смешанные единоборства. MMA. UFC 187: Johnson vs. Cormier (Early Prelims) [23.05] (2015) WEB-DL, WEB-DL 720p

35 | 13

2.24 ГБ

В этой теме нет новых непрочитанных сообщений. Смешанные единоборства. MMA. UFC on FOX 15: Machida vs. Rockhold (Early Prelims) [18.04] (2015) WEBRip

30 | 7

1.1 ГБ




Вы не можете начинать темы
Вы не можете отвечать на сообщения
Вы не можете редактировать свои сообщения
Вы не можете удалять свои сообщения
Вы не можете добавлять вложения

Перейти:  
Для Мосгорсуда, Роскомнадзора и рекламодателей: mosgorsud-torrent[собачка]yandex.ru
 Вход
ppkBB3cker v.2 © 2008-2014 @ PPK
[ Time : 0.539s | 17 Queries | GZIP : On ]

Торрент трекер RUTOR.IN, Не можете зайти на rutor.org? Какой новый адрес рутор? Какое зеркало рутор? Не работает rutor.org и зеркала? Тогда наш торрент специально для вас. Rutor.in неофициальное зеркало rutor. В случае если у Вас заблокирован rutor или вдруг Вы не можете на него зайти, то Вы без труда сможете скачать бесплатно и без рекламы последние новинки кино, игр, сериалов и прочего у нас, на Rutor.in. Не нужно использовать прокси, чтобы зайти на рутор, достаточно воспользоваться нашим ресурсом. Все новые фильмы, игры, сериалы, книги и музыка за 2013 и 2014 годы через торрент бесплатно. Скачивайте фильмы в хорошем качестве, игры для пк, xbox, playstation без регистрации. У нас вы найдете новые Зарубежные сериалы и Русские сериалы 2013, 2014, 2015 годов. Оставайтесь с нами, качайте любимые фильмы, игры, сериалы, книги и музыку.