img image001 image001 image001 image001 image001 image001 image001 image001 image001 image001 image001 image001 image001 image001 image001

Planets Sun Sun Sun
Статистика раздачи
Автор: Nickolas3434 | Размер: 5.62 ГБ | Добавлен: 17 мар 2015
Раздают: 48    Качают: 6
Скачать торрент
Скачать торрент
Описание торрента

СообщениеДобавлено: 17 мар 2015 

Формула 1 2015 – Этап 01 – Австралия – Гонка
SkySportsHD/Россия2




Год выпуска: 2015
Вид спорта: Formula 1 (F1)
Участники: Пилоты Ф1 2015 и специалисты команд
Продолжительность: 2 часа 4 мин
Комментарий: Профессиональный (многоголосый)
Язык комментариев:
русский: А. Попов/Н. Фабричнова (по умолчанию)
английский: М. Брандл, Д. Крофт, Д. Хилл, с. Лезинби


Содержание:
Австралия, Мельбурн – гонка.

Исходник от: smcgill1969
Качество: HDTVRip
Формат: MKV
Видео кодек: AVC
Аудио кодек: AC3/MP3/AAC
Тех. данные:ВидеоFormat : AVC
Format/Info : Advanced Video Codec
Format profile : High@L3.2
Format settings, CABAC : Yes
Format settings, ReFrames : 4 frames
Codec ID : avc1
Codec ID/Info : Advanced Video Coding
Duration : 2h 4mn
Bit rate mode : Variable
Bit rate : 5 636 Kbps
Width : 1 280 pixels
Height : 720 pixels
Display aspect ratio : 16:9
Frame rate mode : Constant
Frame rate : 50.000 fps
Color space : YUV
Chroma subsampling : 4:2:0
Bit depth : 8 bits
Scan type : Progressive
Bits/(Pixel*Frame) : 0.122АудиоAudio #1
ID : 2
Format : MPEG Audio
Format version : Version 1
Format profile : Layer 3
Mode : Joint stereo
Codec ID : A_MPEG/L3
Codec ID/Hint : MP3
Duration : 2h 4mn
Bit rate mode : Constant
Bit rate : 192 Kbps
Channel(s) : 2 channels
Sampling rate : 48.0 KHz
Compression mode : Lossy
Stream size : 171 MiB (3%)
Title : Russia2
Language : Russian
Default : Yes
Forced : No
Audio #2
ID : 3
Format : AAC
Format/Info : Advanced Audio Codec
Format profile : LC
Codec ID : A_AAC
Duration : 2h 4mn
Channel(s) : 6 channels
Channel positions : Front: L C R, Side: L R, LFE
Sampling rate : 48.0 KHz
Compression mode : Lossy
Title : SkySportsF1
Language : English
Default : No
Forced : No
Audio #3
ID : 4
Format : AC-3
Format/Info : Audio Coding 3
Mode extension : CM (complete main)
Format settings, Endianness : Big
Codec ID : A_AC3
Duration : 2h 4mn
Bit rate mode : Constant
Bit rate : 320 Kbps
Channel(s) : 6 channels
Channel positions : Front: L C R, Side: L R, LFE
Sampling rate : 48.0 KHz
Bit depth : 16 bits
Compression mode : Lossy
Stream size : 285 MiB (5%)
Title : SkySportsF1
Language : English
Default : No
Forced : No



   Похожие торренты   Торрент   Размер 
В этой теме нет новых непрочитанных сообщений. Формула 1: 01/20. Гран-при Австралии. Гонка [14.03] (2015) HDTVRip 720p | 50 fps

63 | 122

8.18 ГБ

В этой теме нет новых непрочитанных сообщений. Формула 1. Сезон 2013. Этап 01. Гран-при Австралии. Гонка [Россия 2] (2013) SATRip

123 | 2

2.38 ГБ

В этой теме нет новых непрочитанных сообщений. Формула 1: 01/20. Гран-при Австралии. Гонка [14.03] (2015) SATRip

305 | 11

1.4 ГБ

В этой теме нет новых непрочитанных сообщений. Формула 1: 01/20. Гран-при Австралии. Гонка [14.03] (2015) HDTV 1080i

23 | 37

19.27 ГБ

В этой теме нет новых непрочитанных сообщений. Формула 1. 2015. 14/20. Гран-при Японии. Гонка. BBC HD (Россия 2) [27.09] (2015) HDTVRip 720p

82 | 25

3.44 ГБ

В этой теме нет новых непрочитанных сообщений. Формула 1. 2017. 01/21. Гран-при Австралии. Гонка (Матч ТВ HD) [26.03] (2017) HDTVRip 720p | 50 fps

30 | 0

3.53 ГБ

В этой теме нет новых непрочитанных сообщений. Формула 1. Гран-при Австралии 2014. 1 этап. Гонка (2014) HDTVRip 720p

1109 | 287

3.6 ГБ




Вы не можете начинать темы
Вы не можете отвечать на сообщения
Вы не можете редактировать свои сообщения
Вы не можете удалять свои сообщения
Вы не можете добавлять вложения

Перейти:  
Для Мосгорсуда, Роскомнадзора и рекламодателей: mosgorsud-torrent[собачка]yandex.ru
 Вход
ppkBB3cker v.2 © 2008-2014 @ PPK
[ Time : 0.033s | 16 Queries | GZIP : Off ]

cron